<svg xmlns="http://www.w3.org/2000/svg"><defs><font id="FontAwesome5Brands-Regular" horiz-adv-x="448"><font-face font-family="Font Awesome 5 Brands Regular" font-weight="400" units-per-em="512" panose-1="2 0 5 3 0 0 0 0 0 0" ascent="448" descent="-64" bbox="-0.200195 -66.9505 641.5 448.3" underline-thickness="25" underline-position="-50" unicode-range="U+0020-F8E8"/><glyph glyph-name="twitter-square" unicode="" d="M400 416c26.5 0 48-21.5 48-48V16c0-26.5-21.5-48-48-48H48C21.5-32 0-10.5 0 16v352c0 26.5 21.5 48 48 48h352zm-48.9-158.8c12.8 9.3 24 20.9 32.9 34-11.8-5.1-24.6-8.8-37.8-10.2 13.6 8.1 23.9 20.9 28.8 36.1-12.6-7.5-26.8-13-41.6-15.8-12 12.8-29 20.7-47.9 20.7-40 0-73.3-36.1-64-80.6-54.4 2.8-102.9 28.8-135.2 68.6-5.7-9.7-8.899-20.9-8.899-33.1v-.107c0-19.359 13.081-43.772 29.2-54.493-10.7.4-20.9 3.4-29.6 8.3v-.8c0-31.9 22.5-58.3 52.5-64.4-10.4-2.7-19.5-2.7-29.6-1.2 8.3-26 32.5-44.9 61.3-45.5-22.5-17.6-50.7-28-81.4-28-5.4 0-10.5.2-15.8.8 29-18.6 63.5-29.4 100.7-29.4 120.6 0 186.6 99.9 186.6 186.6 0 2.8 0 5.7-.2 8.5z"/><glyph glyph-name="facebook-square" unicode="" d="M400 416c26.496 0 48-21.504 48-48V16c0-26.496-21.504-48-48-48H262.75v152.31h57.78l11 71.69h-68.78v46.55c0 19.61 9.61 38.73 40.42 38.73h31.27v61s-28.38 4.84-55.52 4.84c-56.67 0-93.67-34.33-93.67-96.48V192h-63v-71.69h63V-32H48C21.504-32 0-10.496 0 16v352c0 26.496 21.504 48 48 48h352z"/><glyph glyph-name="linkedin" unicode="" d="M416 416c17.6 0 32-14.5 32-32.3V.3c0-17.8-14.4-32.3-32-32.3H31.9C14.3-32 0-17.5 0 .3v383.4C0 401.5 14.3 416 31.9 416H416zM135.4 32h.1v213.8H69V32h66.4zm-33.2 243c21.3 0 38.5 17.2 38.5 38.5 0 21.2-17.3 38.5-38.5 38.5-21.3 0-38.5-17.3-38.5-38.5S80.9 275 102.2 275zM384.3 32v117.2c0 57.6-12.5 101.899-79.7 101.899-32.3 0-54-17.7-62.9-34.5h-.9v29.2h-63.7V32h66.4v105.8c0 27.9 5.3 54.9 39.9 54.9 34 0 34.5-31.9 34.5-56.7V32h66.4z"/><glyph glyph-name="github-square" unicode="" d="M400 416c26.5 0 48-21.5 48-48V16c0-26.5-21.5-48-48-48H48C21.5-32 0-10.5 0 16v352c0 26.5 21.5 48 48 48h352zM277.3 32.3c66 22 110.8 84.9 110.7 158.3 0 91.8-74.4 161.5-166.2 161.5s-162-69.7-162-161.5C59.8 117.2 106 54.4 172 32.3c8.5-1.5 11.5 3.7 11.5 8 0 4.1-.2 26.7-.2 40.6 0 0-46.4-10-56.1 19.7 0 0-7.6 19.2-18.4 24.2 0 0-15.1 10.4 1.1 10.2 0 0 16.4-1.3 25.5-17.1 14.5-25.6 38.8-18.2 48.3-13.9 1.5 10.6 5.8 18 10.6 22.3-37 4.1-74.3 9.5-74.3 73.1 0 18.2 5 27.3 15.6 39-1.8 4.4-7.4 22.1 1.7 45 13.9 4.3 45.7-17.9 45.7-17.9 13.2 3.7 27.5 5.6 41.6 5.6 14.1 0 28.4-1.9 41.6-5.6 0 0 31.8 22.2 45.7 17.9 9.1-23 3.4-40.7 1.7-45 10.6-11.7 17.1-20.8 17.1-39 0-63.9-39-69-76-73.1 6.1-5.2 11.3-15.1 11.3-30.7 0-22.3-.2-49.9-.2-55.3 0-4.3 3.1-9.5 11.5-8zm-98.1 61.1c-1.9-.4-3.7.4-3.9 1.7-.2 1.5 1.1 2.8 3 3.2 1.9.2 3.7-.6 3.9-1.9.3-1.3-1-2.6-3-3zm-9.5.9c0 1.5-1.8 2.6-3.7 2.4-2 0-3.5-1.1-3.5-2.4 0-1.5 1.5-2.6 3.7-2.4 2 0 3.5 1.1 3.5 2.4zM156 95.4c-.4-1.3-2.4-1.9-4.1-1.3-1.9.4-3.2 1.9-2.8 3.2.4 1.3 2.4 1.9 4.1 1.5 2-.6 3.3-2.1 2.8-3.4zm-12.3 5.4c.9.8.4 2.8-.9 4.1-1.5 1.5-3.4 1.7-4.3.6-1-.9-.6-2.8.9-4.1 1.5-1.5 3.4-1.7 4.3-.6zm-9.1 9.1c1.1.8 1.1 2.6 0 4.1-.9 1.5-2.6 2.2-3.7 1.3-1.1-.7-1.1-2.4 0-3.9s2.8-2.1 3.7-1.5zm-6.5 9.7c.9.7.7 2.2-.4 3.5-1.1 1-2.6 1.5-3.5.6-.9-.7-.7-2.2.4-3.5 1.1-1 2.6-1.5 3.5-.6zm-6.7 7.4c.4.8-.2 1.9-1.5 2.6-1.3.5-2.4.2-2.8-.4-.4-.9.2-2 1.5-2.6 1.1-.7 2.4-.5 2.8.4z"/><glyph glyph-name="twitter" unicode="" horiz-adv-x="512" d="M459.37 296.284c.325-4.548.325-9.098.325-13.646 0-138.72-105.583-298.558-298.559-298.558C101.684-15.92 46.456 1.3 0 31.186c8.447-.974 16.569-1.299 25.34-1.299 49.055 0 94.213 16.569 130.274 44.832-46.132.976-84.792 31.189-98.112 72.773 6.498-.975 12.995-1.624 19.818-1.624 9.421 0 18.843 1.3 27.613 3.573-48.08 9.747-84.142 51.98-84.142 102.984v1.299c13.969-7.797 30.214-12.67 47.43-13.319-28.263 18.843-46.78 51.005-46.78 87.39 0 19.493 5.196 37.361 14.294 52.955 51.654-63.675 129.3-105.258 216.364-109.807-1.624 7.797-2.599 15.918-2.599 24.04 0 57.827 46.783 104.934 104.934 104.934 30.214 0 57.502-12.67 76.671-33.137 23.715 4.548 46.455 13.32 66.599 25.34-7.798-24.366-24.366-44.833-46.132-57.827 21.117 2.273 41.584 8.122 60.426 16.243-14.292-20.79-32.161-39.308-52.628-54.253z"/><glyph glyph-name="facebook" unicode="" horiz-adv-x="512" d="M504 192c0-123.78-90.69-226.38-209.25-245v173.31h57.78l11 71.69h-68.78v46.55c0 19.61 9.61 38.73 40.41 38.73h31.28v61s-28.38 4.84-55.52 4.84c-56.67 0-93.67-34.33-93.67-96.48V192h-63v-71.69h63V-53C98.69-34.38 8 68.22 8 192c0 137 111 248 248 248s248-111 248-248z"/><glyph glyph-name="github" unicode="" horiz-adv-x="496" d="M165.9 50.6c0-2-2.3-3.6-5.2-3.6-3.3-.3-5.6 1.3-5.6 3.6 0 2 2.3 3.6 5.2 3.6 3 .3 5.6-1.3 5.6-3.6zm-31.1 4.5c.7 2 3.6 3 6.2 2.3 3-.9 4.9-3.2 4.3-5.2-.6-2-3.6-3-6.2-2-3 .6-5 2.9-4.3 4.9zm44.2 1.7c2.9.3 5.6-1 5.9-2.9.3-2-1.7-3.9-4.6-4.6-3-.7-5.6.6-5.9 2.6-.3 2.3 1.7 4.2 4.6 4.9zM244.8 440C383.5 440 496 334.7 496 196 496 85.1 428.2-9.8 328.2-43c-12.7-2.3-17.3 5.6-17.3 12.1 0 8.2.3 49.9.3 83.6 0 23.5-7.8 38.5-17 46.4 55.9 6.3 114.8 14 114.8 110.5 0 27.4-9.8 41.2-25.8 58.9 2.6 6.5 11.1 33.2-2.6 67.9-20.9 6.6-69-27-69-27-20 5.6-41.5 8.5-62.8 8.5S206 315 186 309.4c0 0-48.1 33.5-69 27-13.7-34.6-5.2-61.4-2.6-67.9-16-17.6-23.6-31.4-23.6-58.9 0-96.2 56.4-104.3 112.3-110.5-7.2-6.6-13.7-17.7-16-33.7-14.3-6.6-51-17.7-72.9 20.9-13.7 23.8-38.6 25.8-38.6 25.8-24.5.3-1.6-15.4-1.6-15.4 16.4-7.5 27.8-36.6 27.8-36.6 14.7-44.8 84.7-29.8 84.7-29.8 0-21 .3-55.2.3-61.4 0-6.5-4.5-14.4-17.3-12.1C69.8-9.8 0 85.1 0 196c0 138.7 106.1 244 244.8 244zM97.2 95.1c1.3 1.3 3.6.6 5.2-1 1.7-1.9 2-4.2.7-5.2-1.3-1.3-3.6-.6-5.2 1-1.7 1.9-2 4.2-.7 5.2zm-10.8 8.1c.7 1 2.3 1.3 4.3.7 2-1 3-2.6 2.3-3.9-.7-1.4-2.7-1.7-4.3-.7-2 1-3 2.6-2.3 3.9zm32.4-35.6c1.3 1.6 4.3 1.3 6.5-1 2-1.9 2.6-4.9 1.3-6.2-1.3-1.6-4.2-1.3-6.5 1-2.3 1.9-2.9 4.9-1.3 6.2zm-11.4 14.7c1.6 1.3 4.2.3 5.6-2 1.6-2.3 1.6-4.9 0-6.2-1.3-1-4 0-5.6 2.3-1.6 2.3-1.6 4.9 0 5.9z"/><glyph glyph-name="pinterest" unicode="" horiz-adv-x="496" d="M496 192C496 55 385-56 248-56c-25.6 0-50.2 3.9-73.4 11.1 10.1 16.5 25.2 43.5 30.8 65 3 11.6 15.4 59 15.4 59 8.1-15.4 31.7-28.5 56.8-28.5 74.8 0 128.7 68.8 128.7 154.3 0 81.9-66.9 143.2-152.9 143.2-107 0-163.9-71.8-163.9-150.1 0-36.4 19.401-81.7 50.3-96.1 4.7-2.2 7.2-1.2 8.3 3.3.801 3.4 5 20.3 6.9 28.1.6 2.5.3 4.7-1.7 7.1-10.1 12.5-18.3 35.3-18.3 56.6 0 54.7 41.401 107.6 112 107.6 60.901 0 103.6-41.5 103.6-100.9 0-67.1-33.899-113.6-78-113.6-24.3 0-42.599 20.1-36.699 44.8 7 29.5 20.5 61.3 20.5 82.6 0 19-10.2 34.9-31.4 34.9-24.9 0-44.9-25.7-44.9-60.2 0-22 7.4-36.8 7.4-36.8s-24.5-103.8-29-123.2c-5-21.4-3-51.6-.9-71.2C65.4-2.9 0 86.9 0 192c0 137 111 248 248 248s248-111 248-248z"/><glyph glyph-name="pinterest-square" unicode="" d="M448 368V16c0-26.5-21.5-48-48-48H154.4c9.8 16.4 22.4 40 27.4 59.3 3 11.5 15.3 58.4 15.3 58.4 8-15.3 31.4-28.2 56.3-28.2 74.1 0 127.399 68.1 127.399 152.7 0 81.1-66.2 141.8-151.399 141.8-106 0-162.2-71.1-162.2-148.6 0-36 19.2-80.8 49.8-95.1 4.7-2.2 7.1-1.2 8.2 3.3.8 3.4 5 20.1 6.8 27.8.6 2.5.3 4.6-1.7 7-10.1 12.3-18.3 34.9-18.3 56 0 54.2 41 106.6 110.9 106.6 60.3 0 102.6-41.1 102.6-99.9 0-66.4-33.5-112.4-77.2-112.4-24.1 0-42.1 19.9-36.4 44.4 6.9 29.2 20.3 60.7 20.3 81.8 0 53-75.5 45.7-75.5-25 0-21.7 7.3-36.5 7.3-36.5-31.4-132.8-36.1-134.5-29.6-192.6l2.2-.8H48C21.5-32 0-10.5 0 16v352c0 26.5 21.5 48 48 48h352c26.5 0 48-21.5 48-48z"/><glyph glyph-name="google-plus-square" unicode="" d="M400 416c26.5 0 48-21.5 48-48V16c0-26.5-21.5-48-48-48H48C21.5-32 0-10.5 0 16v352c0 26.5 21.5 48 48 48h352zM164 92c57.7 0 96 40.5 96 97.6 0 6.5-.6 11.6-1.6 16.6H164v-34.4h56.9c-2.4-14.6-17.2-43.1-56.8-43.1-34.1 0-61.9 28.3-61.9 63.2 0 35 27.8 63.2 61.9 63.2 19.5 0 32.4-8.3 39.8-15.4l27.1 26.1c-17.5 16.4-40 26.2-67 26.2-55.3 0-100-44.7-100-100S108.7 92 164 92zm220 81.8V203h-29v29h-29.2v-29h-29v-29.2h29v-29H355v29h29z"/><glyph glyph-name="google-plus-g" unicode="" horiz-adv-x="640" d="M386.061 219.504c1.834-9.692 3.144-19.384 3.144-31.956C389.205 77.795 315.599 0 204.8 0c-106.084 0-192 85.915-192 192s85.916 192 192 192c51.864 0 95.083-18.86 128.61-50.292l-52.125-50.03c-14.146 13.62-39.029 29.6-76.486 29.6-65.483 0-118.92-54.223-118.92-121.278S139.317 70.723 204.8 70.723c75.961 0 104.514 54.745 108.965 82.774H204.8v66.008h181.261zm185.406-6.437H627.2v-56.001h-55.733v-55.733h-56.001v55.733h-55.732v56.001h55.732v55.732h56.001v-55.732z"/><glyph glyph-name="linkedin-in" unicode="" d="M100.28 0H7.4v299.1h92.88V0zM53.79 339.9C24.09 339.9 0 364.5 0 394.2c0 29.691 24.098 53.79 53.79 53.79s53.79-24.099 53.79-53.79c0-29.7-24.1-54.3-53.79-54.3zM447.9 0h-92.68v145.6c0 34.7-.7 79.2-48.29 79.2-48.29 0-55.69-37.7-55.69-76.7V0h-92.78v299.1h89.08v-40.8h1.3c12.4 23.5 42.69 48.3 87.88 48.3 94 0 111.28-61.9 111.28-142.3V0h-.1z"/><glyph glyph-name="github-alt" unicode="" horiz-adv-x="480" d="M186.1 119.3c0-20.9-10.9-55.1-36.7-55.1-25.8 0-36.7 34.2-36.7 55.1s10.9 55.1 36.7 55.1c25.8 0 36.7-34.2 36.7-55.1zM480 169.8c0-31.9-3.2-65.7-17.5-95C424.6-1.8 320.4 0 245.8 0 170 0 59.6-2.7 20.2 74.8 5.6 103.8 0 137.9 0 169.8c0 41.9 13.9 81.5 41.5 113.601-5.2 15.8-7.7 32.4-7.7 48.8 0 21.5 4.9 32.3 14.6 51.8 45.3 0 74.3-9 108.8-36 29 6.9 58.8 10 88.7 10 27 0 54.2-2.9 80.4-9.2 34 26.7 63 35.2 107.8 35.2 9.8-19.5 14.6-30.3 14.6-51.8 0-16.4-2.6-32.7-7.7-48.2 27.5-32.4 39-72.3 39-114.2zm-64.3-50.5c0 43.9-26.7 82.6-73.5 82.6-18.9 0-37-3.4-56-6-14.9-2.3-29.8-3.2-45.1-3.2-15.2 0-30.1.9-45.1 3.2-18.7 2.6-37 6-56 6-46.8 0-73.5-38.7-73.5-82.6C66.5 31.5 146.9 18 216.9 18h48.199c70.3 0 150.601 13.4 150.601 101.3zm-82.6 55.1c25.8 0 36.7-34.2 36.7-55.1s-10.9-55.1-36.7-55.1c-25.8 0-36.7 34.2-36.7 55.1s10.9 55.1 36.7 55.1z"/><glyph glyph-name="maxcdn" unicode="" horiz-adv-x="512" d="M461.1 5.3h-97.4L415.6 248c2.3 10.2.9 19.5-4.4 25.7-5 6.1-13.7 9.6-24.2 9.6h-49.3l-59.5-278h-97.4l59.5 278h-83.4L97.4 5.3H0l59.5 278-44.6 95.4H387c39.401 0 75.3-16.3 98.3-44.9 23.3-28.6 31.8-67.4 23.601-105.9z"/><glyph glyph-name="html5" unicode="" horiz-adv-x="384" d="M0 416h384L349.1 20.2 191.5-32 34.9 20.2zm308.2-127.9l4.4 47.7H71.5l12.8-145.6h166.9l-6-62.2-53.701-14.5-53.5 14.5-3.5 38.1h-47.7l6-75.8 98.7-27.3h1.1v.3l97.9 27 13.6 148.4h-175.6l-4.1 49.4h183.8z"/><glyph glyph-name="css3" unicode="" horiz-adv-x="512" d="M480 416L416 48 192.7-32 0 48l19.6 94.8h82l-8-40.6L210 57.8l134.1 44.4 18.8 97.1H29.5l16 82h333.7l10.5 52.7H56.3l16.3 82H480z"/><glyph glyph-name="btc" unicode="" horiz-adv-x="384" d="M310.204 205.362c46.006-11.028 74.997-38.444 69.326-99.89-7.248-76.573-61.596-97.055-142.896-101.468V-64h-48.527V2.745c-12.29 0-25.21 0-38.444.314V-64h-48.529V4.004s-8.888.316-97.37.316l9.768 57.666c34.73-.614 50.33-3.421 53.255 16.07v217.43c-4.607 24.566-24.71 22.105-63.024 21.427v51.678c58.748-.276 79.529-.54 97.37 0V448h48.529v-77.833c12.919.315 25.839.63 38.444.63V448h48.527v-79.41c62.393-5.355 109.492-24.578 114.851-81.928 4.097-41.91-13.55-67.12-41.28-81.3zM150.608 313.447v-96.74c27.416 0 113.126-6.303 113.126 48.212 0 57.035-85.71 48.528-113.126 48.528zm0-251.776c32.772 0 133.126-6.933 133.127 53.253 0 62.393-100.355 53.255-133.127 53.255V61.67z"/><glyph glyph-name="youtube" unicode="" horiz-adv-x="576" d="M549.655 323.917c11.412-42.867 11.412-132.305 11.412-132.305s0-89.439-11.412-132.306c-6.281-23.65-24.787-41.5-48.284-47.82C458.78-.001 288-.001 288-.001S117.22 0 74.629 11.486c-23.497 6.32-42.003 24.17-48.284 47.82-11.413 42.867-11.413 132.306-11.413 132.306s0 89.437 11.413 132.305c6.28 23.65 24.787 42.275 48.284 48.597C117.219 384 287.999 384 287.999 384s170.782 0 213.372-11.486c23.497-6.32 42.003-24.947 48.284-48.597zm-317.51-213.508l142.739 81.201-142.739 81.205V110.41z"/><glyph glyph-name="xing" unicode="" horiz-adv-x="384" d="M162.7 238c-1.8-3.3-25.2-44.4-70.1-123.5-4.9-8.3-10.8-12.5-17.7-12.5H9.8c-7.7 0-12.1 7.5-8.5 14.4l69 121.3c.2 0 .2.1 0 .3l-43.9 75.6c-4.3 7.8.3 14.1 8.5 14.1H100c7.3 0 13.3-4.1 18-12.2zm219.9 163.9l-144-253v-.3L330.2-18c3.9-7.1.2-14.1-8.5-14.1h-65.2c-7.6 0-13.6 4-18 12.199l-92.4 168.5c3.3 5.8 51.5 90.8 144.801 255.2 4.6 8.1 10.4 12.2 17.5 12.2h65.7c8 0 12.3-6.7 8.5-14.1z"/><glyph glyph-name="xing-square" unicode="" d="M400 416c26.5 0 48-21.5 48-48V16c0-26.5-21.5-48-48-48H48C21.5-32 0-10.5 0 16v352c0 26.5 21.5 48 48 48h352zM140.4 127.8c4.9 0 9.1 2.9 12.6 9.1 32.1 56.5 48.8 85.9 50.1 88.2l-31.9 55.3c-3.4 5.8-7.7 8.7-12.9 8.7h-46.6c-5.8 0-9-4.5-6-10.1l31.4-54c.1-.1.1-.2 0-.2l-49.3-86.7c-2.7-5 .5-10.3 6-10.3h46.6zm219.7 214.1c2.8 5.3-.3 10.1-6 10h-46.9c-5.1 0-9.2-2.9-12.5-8.7C228.1 225.8 193.6 165 191.3 160.9l66-120.301c3.2-5.8 7.401-8.7 12.901-8.7h46.6c6.1 0 8.8 5 6 10.1l-65.5 119v.2z"/><glyph glyph-name="dropbox" unicode="" horiz-adv-x="528" d="M264.4 331.7l-132-84.3 132-84.3-132-84.3L0 163.9l132.3 84.3L0 331.7 132.3 416zM131.6 52.3l132 84.3 132-84.3-132-84.3zm132.8 111.6l132 84.3-132 83.6L395.7 416 528 331.7l-132.3-84.3L528 163.2 395.7 78.9z"/><glyph glyph-name="stack-overflow" unicode="" horiz-adv-x="384" d="M290.7 137l-8.2-39-195.7 41 8.2 39.3zm51 87l-25.5-30.8-153.5 128.3 25.5 30.8zm-31.2-39.7L293.7 148l-181.2 84.5 16.7 36.5zM262 416l119.3-160.3-32-24L230 392zm20.5-328V48.3h-200V88h200zm39.7-80v120h40V-32H2.7v160h40V8h279.5z"/><glyph glyph-name="instagram" unicode="" d="M224.1 307c63.6 0 114.9-51.3 114.9-114.9 0-63.6-51.3-114.899-114.9-114.899-63.6 0-114.899 51.3-114.899 114.899 0 63.6 51.3 114.9 114.899 114.9zm0-189.6c41.1 0 74.7 33.5 74.7 74.7s-33.5 74.7-74.7 74.7-74.7-33.5-74.7-74.7 33.6-74.7 74.7-74.7zm146.4 194.3c0-14.9-12-26.8-26.8-26.8-14.9 0-26.8 12-26.8 26.8s12 26.8 26.8 26.8 26.8-12 26.8-26.8zm76.1-27.2c2.1-37 2.1-147.8 0-184.8-1.8-35.9-10-67.7-36.2-93.9-26.2-26.3-58-34.5-93.9-36.2-37-2.1-147.9-2.1-184.9 0-35.899 1.8-67.6 10-93.899 36.2s-34.5 58-36.2 93.9c-2.1 37-2.1 147.899 0 184.899 1.8 35.9 9.9 67.7 36.2 93.9s58.1 34.4 93.9 36.1c37 2.1 147.9 2.1 184.9 0 35.9-1.8 67.7-10 93.9-36.2 26.3-26.2 34.5-58 36.199-93.9zM398.8 60c11.7 29.4 9 99.5 9 132.1 0 32.6 2.7 102.601-9 132.101-7.9 19.7-23 34.8-42.6 42.6-29.4 11.6-99.5 9-132.1 9-32.6 0-102.6 2.7-132.1-9-19.7-7.9-34.8-23-42.6-42.6-11.6-29.4-9-99.5-9-132.101 0-32.6-2.7-102.6 9-132.1 7.9-19.7 23-34.8 42.6-42.6 29.4-11.6 99.5-9 132.1-9 32.6 0 102.6-2.7 132.1 9 19.7 7.9 34.8 23 42.6 42.6z"/><glyph glyph-name="flickr" unicode="" d="M400 416c26.5 0 48-21.5 48-48V16c0-26.5-21.5-48-48-48H48C21.5-32 0-10.5 0 16v352c0 26.5 21.5 48 48 48h352zM144.5 129c35.1 0 63.5 28.4 63.5 63.5S179.6 256 144.5 256 81 227.6 81 192.5s28.4-63.5 63.5-63.5zm159 0c35.1 0 63.5 28.4 63.5 63.5S338.6 256 303.5 256 240 227.6 240 192.5s28.4-63.5 63.5-63.5z"/><glyph glyph-name="adn" unicode="" horiz-adv-x="496" d="M248 280.5l64.9-98.8H183.1zM496 192C496 55.1 384.9-56 248-56S0 55.1 0 192s111.1 248 248 248 248-111.1 248-248zm-99.8-82.7L248 332.5 99.8 109.3h30.4l33.6 51.7h168.601l33.6-51.7h30.2z"/><glyph glyph-name="bitbucket" unicode="" horiz-adv-x="512" d="M22.2 416l466.8-.2c.777-.01 2.03-.1 2.8-.2 7.396-1.22 13.398-8.291 13.398-15.787 0-.698-.088-1.824-.198-2.513L437.1-19.5c-1.217-7.398-8.29-13.402-15.787-13.402l-.213.001H95.4c-10.1.082-19.644 8.236-21.3 18.2L6.2 397.402a31.55 31.55 0 00-.2 2.8c.109 8.721 7.276 15.8 16 15.8h.2zm285.9-297.8l25.2 147H176l28.1-147h104z"/><glyph glyph-name="tumblr" unicode="" horiz-adv-x="320" d="M309.8-32.3c-13.6-14.5-50-31.7-97.4-31.7-120.8 0-147 88.8-147 140.6v144H17.9c-5.5 0-10 4.5-10 10v68c0 7.2 4.5 13.6 11.3 16 62 21.8 81.5 76 84.3 117.101.8 11 6.5 16.3 16.1 16.3h70.9c5.5 0 10-4.5 10-10V322.8h83c5.5 0 10-4.4 10-9.9v-81.7c0-5.5-4.5-10-10-10h-83.4V88c0-34.2 23.7-53.6 68-35.8 4.8 1.9 9 3.2 12.7 2.2 3.5-.9 5.8-3.4 7.4-7.9l22-64.3c1.8-5 3.3-10.6-.4-14.5z"/><glyph glyph-name="tumblr-square" unicode="" d="M400 416c26.5 0 48-21.5 48-48V16c0-26.5-21.5-48-48-48H48C21.5-32 0-10.5 0 16v352c0 26.5 21.5 48 48 48h352zM317.7 51.8c2.3 2.4 1.3 5.9.3 9.1l-13.8 40.2c-1 2.8-2.4 4.4-4.6 4.9-2.4.6-5-.2-8-1.4-27.7-11.1-42.5 1-42.5 22.4v83.3h52.1c3.4 0 6.2 2.8 6.2 6.2v51.1c0 3.4-2.8 6.2-6.2 6.2h-51.9v72c0 3.4-2.8 6.2-6.2 6.2h-44.3c-5.9 0-9.5-3.3-10-10.2-1.8-25.7-13.9-59.5-52.7-73.2-4.3-1.5-7.1-5.5-7.1-10v-42.5c0-3.4 2.8-6.2 6.2-6.2h29.7v-90c0-32.4 16.4-87.9 91.9-87.9 29.7 0 52.4 10.7 60.9 19.8z"/><glyph glyph-name="apple" unicode="" horiz-adv-x="384" d="M318.7 179.3c0-1.9-3.5-61.2 61.7-91.9-12.2-36.8-54-118.6-102.6-119.3-28.1 0-44.6 17.9-76.4 17.9-32.801 0-50.6-17.3-75.801-17.9-48.2-1.5-94.4 88.5-107.199 125.2C8.8 121.233 4 148.3 4 174.5c0 88.7 59.3 132.3 115.1 133.2 27 0 61.4-19.7 76.4-19.7 14.2 0 53 23.5 88.5 20.7 37.5-2.9 65.9-17.7 84.7-44.6-33.6-20.4-50.2-48.1-50-84.8zm-56.6 164.2c-19.6-22.9-43.4-36.3-69.5-34.3-2.2 27.6 8.1 52.1 25.6 71.9 15.9 18.5 43.8 33.5 67.9 34.9.8-10.6 3.3-40.1-24-72.5z"/><glyph glyph-name="windows" unicode="" d="M0 354.3l183.6 25.3V202.2H0v152.1zM0 29.7v149.9h183.6V4.4zm203.8-28v177.9H448V-32zm0 380.6L448 416V202.2H203.8v180.1z"/><glyph glyph-name="android" unicode="" d="M89.6 243.5V127.7c0-15.4-12.1-27.7-27.5-27.7-15.3 0-30.1 12.4-30.1 27.7v115.8c0 15.1 14.8 27.5 30.1 27.5 15.1 0 27.5-12.4 27.5-27.5zm10.8-157v179.4h247.3V86.5c0-16.4-13.2-29.6-29.4-29.6h-20.2V-4.2c0-36.8-55.5-36.7-55.5 0v61.1h-37.2V-4.2c0-36.6-55.2-36.9-55.2 0l-.3 61.1H130c-16.4 0-29.6 13.2-29.6 29.6zm248 189.1H99.299c0 42.8 25.6 80 63.6 99.4l-19.1 35.3c-2.8 4.9 4.3 8 6.7 3.8l19.4-35.6c34.9 15.5 75 14.7 108.3 0l19.3 35.5c2.5 4.3 9.5 1.1 6.7-3.8L285.1 375c37.7-19.4 63.3-56.6 63.3-99.4zm-170.7 55.5c0 5.7-4.6 10.5-10.5 10.5-5.7 0-10.2-4.8-10.2-10.5s4.6-10.5 10.2-10.5c5.9 0 10.5 4.8 10.5 10.5zm113.4 0c0 5.7-4.6 10.5-10.2 10.5-5.9 0-10.5-4.8-10.5-10.5s4.6-10.5 10.5-10.5c5.6 0 10.2 4.8 10.2 10.5zm94.8-60.1c15.3 0 30.1-12.1 30.1-27.5V127.7c0-15.3-14.7-27.7-30.1-27.7-15.1 0-27.5 12.3-27.5 27.7v115.8c0 15.4 12.4 27.5 27.5 27.5z"/><glyph glyph-name="linux" unicode="" d="M220.8 324.7c-1.1.6-3.1.4-3.4 1.7-.2.4.2.9.6 1.1 1.6.9 3.8.6 5.5-.1 1.3-.6 3.4-1.5 3.2-2.9-.1-1.1-1.8-1.5-2.9-1.5-1.2 0-2 1.2-3 1.7zm-21.9-1.7c-1-.1-2.7.4-2.8 1.4-.2 1.4 1.9 2.3 3.2 2.9 1.7.7 3.9 1 5.5.1.4-.2.8-.7.6-1.1-.4-1.2-2.4-1-3.5-1.6-1-.5-1.8-1.7-3-1.7zM420 44.2c11.1-12.4 15.9-21.5 15.5-29.7C435 6.3 429 .7 421.6-3.8c-14.9-9-37.3-15.8-50.9-32.2-14.2-16.9-31.7-26.6-48.3-27.9-16.5-1.3-32 6.3-40.3 23v.1c-1.1 2.1-1.9 4.4-2.5 6.7-21.5-1.2-40.2 5.3-55.1 4.1-22-1.2-35.8-6.5-48.3-6.6-4.8-10.6-14.3-17.6-25.9-20.2-16-3.7-36.1 0-55.9 10.4-18.5 9.8-42 8.9-59.3 12.5-8.7 1.8-16.3 5-20.1 12.3-3.7 7.3-3 17.3 2.2 31.7 1.7 5.1.4 12.7-.8 20.8-.6 3.9-1.2 7.9-1.2 11.8 0 4.3.7 8.5 2.8 12.4 4.5 8.5 11.8 12.1 18.5 14.5 6.7 2.4 12.8 4 17 8.3 5.2 5.5 10.1 14.4 16.6 20.2-2.6 17.2.2 35.4 6.2 53.3 12.6 37.9 39.2 74.2 58.1 96.7 16.1 22.9 20.8 41.3 22.5 64.7 1.1 31.8-24.5 135.4 77.9 135.2 80.9-.1 76.3-85.4 75.8-131.3-.3-30.1 16.3-50.5 33.4-72 15.2-18 35.1-44.3 46.5-74.4 9.3-24.6 12.9-51.8 3.7-79.1 1.4-.5 2.8-1.2 4.1-2 1.4-.8 2.7-1.8 4-2.9 6.6-5.6 8.7-14.3 10.5-22.4 1.9-8.1 3.6-15.7 7.2-19.7zM223.7 360.7c-3.2-7.2-3.9-14.9-2.9-21.8 3.6-.9 8.9-2.4 13-4.4-2.1 12.2 4.5 23.5 11.8 23 8.9-.3 13.9-15.5 9.1-27.3-.8-1.9-2.8-3.4-3.9-4.6 6.7-2.3 11-4.1 12.6-4.9 7.9 9.5 10.8 26.2 4.3 40.4-9.8 21.4-34.2 21.8-44-.4zM183 372.2c-18.9 0-24-37.5-8.4-52.1 7.8 5.7 6.9 4.7 5.9 5.5-8 6.9-6.6 27.4 1.8 28.1 6.3.5 10.8-10.7 9.6-19.6 3.1 2.1 6.7 3.6 10.2 4.6 1.7 19.3-9 33.5-19.1 33.5zm-13.6-60.7c-4.2-3.3-5.6-7.4-4.2-12.3 1.5-4.9 6.1-10.5 14.7-15.3 7.8-4.6 12-11.5 20-15 2.6-1.1 5.7-1.9 9.6-2.1 18.4-1.1 27.1 11.3 38.2 14.9 11.7 3.7 20.1 11 22.7 18.1 3.2 8.5-2.1 14.7-10.5 18.2-11.3 4.9-16.3 5.2-22.6 9.3-10.3 6.6-18.8 8.9-25.9 8.9-14.4 0-23.2-9.8-27.9-14.2-.5-.5-7.9-5.9-14.1-10.5zm3.3-334c2.1 20.5-31.5 49-41 68.9L112.1 82c-6.8 9.2-13.8 14.8-21.9 16-7.7 1.2-12.6-1.4-17.7-6.9-4.8-5.1-8.8-12.3-14.3-18-7.8-6.5-9.3-6.2-19.6-9.9-6.3-2.2-11.3-4.6-14.8-11.3-2.7-5-2.1-12.2-.9-20 1.2-7.9 3-16.3.6-23.9v-.2c-5-13.7-5-21.7-2.6-26.4 7.9-15.4 46.6-6.1 76.5-21.9 31.4-16.4 72.6-17.1 75.3 18zm-1.4 25.9c37.6-25.7 82.2-15.7 114.3 7.2 3.2 11 6.3 21.3 6.8 29 .8 15.2 1.6 28.7 4.4 39.9 3.1 12.6 9.3 23.1 21.4 27.3 2.3 21.1 18.7 21.1 38.3 12.5 18.9-8.5 26-16 22.8-26.1 1 0 2 .1 4.2 0 5.2 16.9-14.3 28-30.7 34.8 2.9 12 2.4 24.1-.4 35.7-6 25.3-22.6 47.8-35.2 59-2.3.1-2.1-1.9 2.6-6.5 11.6-10.7 37.1-49.2 23.3-84.9-3.9 1-7.6 1.5-10.9 1.4-5.3 29.1-17.5 53.2-23.6 64.6-11.5 21.4-29.5 65.3-37.2 95.7-4.5-6.4-12.4-11.9-22.3-15-4.7-1.5-9.7-5.5-15.9-9-13.9-8-30-8.8-42.4 1.2-4.5 3.6-8 7.6-12.6 10.3-1.6.9-5.1 3.3-6.2 4.1-2-37.8-27.3-85.3-39.3-112.7-8.3-19.7-13.2-40.8-13.8-61.5-21.8 29.1-5.9 66.3 2.6 82.4 9.5 17.6 11 22.5 8.7 20.8-8.6-14-22-36.3-27.2-59.2-2.7-11.9-3.2-24 .3-35.2s11.1-21.5 24.6-29.9c0 0 24.8-14.3 38.3-32.5 7.4-10 9.7-18.7 7.4-24.9-2.5-6.7-9.6-8.9-16.7-8.9 4.8-6 10.3-13 14.4-19.6zm257.4 11.5c.3 5.1-3.1 13-13.7 24.6-10 11.3-7.2 33.1-17.1 41.6-6.9 6-13.6 5.4-22.6 5.1-7.7-8.8-25.8-19.6-38.4-16.3-11.5 2.9-18 16.3-18.8 29.5-.3-.2-.7-.3-1-.5C310 95 306 88.1 303.4 77.8c-2.5-10.2-3.4-23.5-4.2-38.7-.7-11.8-6.2-26.4-9.9-40.6-3.5-13.2-5.8-25.2-1.1-36.3 7.2-14.5 19.5-20.4 33.7-19.3 14.2 1.1 30.4 9.8 43.6 25.5 22 26.6 62.3 29.7 63.2 46.5zM173.3 299.3c-3.5 2.8-3.1 6.6-1.7 6.5 2.4-.3 2.8-3.5 4.3-4.9 2-1.9 4.6-4.4 7.7-6.9 6.2-4.9 14.5-9.7 24.9-9.7s22.5 6 29.9 10.2c4.2 2.4 9.5 6.6 13.9 9.8 3.4 2.5 3.2 5.4 6 5.1 2.8-.3.8-3.2-3.1-6.6-3.9-3.4-9.9-7.8-14.8-10.4-9.3-4.9-20.2-10.8-31.8-10.8-11.5 0-20.7 5.4-27.3 10.6-3.3 2.6-6 5.2-8 7.1z"/><glyph glyph-name="dribbble" unicode="" horiz-adv-x="512" d="M256 440c136.748 0 248-111.252 248-248S392.748-56 256-56 8 55.252 8 192s111.252 248 248 248zm163.97-114.366c-4.466-6.041-39.963-51.546-118.284-83.522 7.437-15.222 12.865-27.574 18.617-41.615 70.485 8.864 140.52-5.34 147.502-6.818-.466 49.998-18.332 95.909-47.835 131.955zm-23.549 24.496c-52.095 46.219-122.885 63.682-190.061 47.49 5.854-7.84 44.328-60.233 79.04-124.009 75.323 28.233 107.211 71.092 111.021 76.519zm-230.48 33.25c-59.264-27.953-103.562-82.585-117.298-148.318 9.475-.125 96.747-.504 195.834 25.81-35.099 62.392-72.951 114.85-78.536 122.509zM44.17 191.677c0-54.407 20.624-104.082 54.457-141.636 34.337 58.78 103.932 120.731 180.53 142.306-5.316 12.034-11.11 24.081-17.173 35.95-105.786-31.66-208.438-30.337-217.706-30.146a212.805 212.805 0 01-.108-6.474zm81.807-167.112c62.754-48.936 144.656-56.896 212.769-27.883-3.15 18.585-15.45 83.355-45.19 160.639-85.4-29.135-145.452-87.524-167.579-132.756zm248.38-8.49c47.522 32.134 81.353 83.037 90.795 141.978-7.247 2.287-65.567 19.682-131.947 9.056 27.706-76.137 38.98-138.147 41.152-151.033z"/><glyph glyph-name="skype" unicode="" d="M424.7 148.2c14.6-18.9 23.3-42.5 23.2-68.1 0-61.8-50.2-112-112-112-25.6 0-49.2 8.7-68.2 23.3-14.1-3-28.9-4.7-43.8-4.7C110.5-13.3 18.6 78.5 18.6 192c0 14.9 1.8 29.8 4.7 43.8C8.7 254.7 0 278.3 0 304c0 61.8 50.2 112 112 112 25.7 0 49.3-8.7 68.3-23.4 14.1 3 28.9 4.7 43.8 4.7 113.4 0 205.3-91.8 205.3-205.3 0-14.9-1.8-29.8-4.7-43.8zM230.1 56.7c54.9 0 112 27.4 112 86.5 0 50.8-49.3 68.3-90.7 77.6-48.3 11.2-69.1 13.2-69.1 33 0 15.5 16.3 22.5 42 22.5 45.8 0 46.7-33.5 75-33.5 18.9 0 30.3 14.9 30.3 31.8 0 33.5-55.7 55.4-110.8 55.4-50.5 0-109.1-21.9-109.1-81.1 0-65.2 55.3-71.8 117.8-87.2 26-6.4 42-9.3 42-28 0-14.9-16.6-26.3-42.3-26.3-54 0-56.9 44.9-88.1 44.9-20.5 0-29.5-14.6-29.5-30.6 0-35.8 54.9-65 120.5-65z"/><glyph glyph-name="foursquare" unicode="" horiz-adv-x="368" d="M323.1 445c40 0 50.7-22.8 42.2-65.2l-48.6-243c-3.7-14.5-9.2-39.7-44.3-39.7H189c-3.4 0-3.7.3-6.8-3.1 0 0-2.2-2.5-131.1-151.9C41-69.6 24.4-67.5 18.2-65 12.1-62.6 0-55.2 0-34.9v433.801c0 17.8 12.4 46.1 49.9 46.1h273.2zm-16.3-73.8c2.1 9.8-5.3 17.5-13.5 17.5h-219c-9.8 0-16.6-8.9-16.6-16.6V33.3c0-.9.9-1.2 1.8-.3 80.6 96.9 89.5 108.3 89.5 108.3 9.3 10.8 13 12.6 26.5 12.6H249c10.1 0 16 8.6 16.9 13.5.9 5 9.6 49.9 11.4 58.8 1.8 9-6.5 18.2-14.8 18.2h-90.4c-12 0-20.6 8.6-20.6 20.6v13c0 12 8.6 20.3 20.6 20.3h106.4c7.4 0 15.7 6.7 16.9 13.2z"/><glyph glyph-name="trello" unicode="" d="M392.3 416c30.8-.2 55.7-25.2 55.6-56V24c0-30.8-24.9-55.8-55.7-56H56C25.1-32 0-6.9 0 24c0 340-.1 336 0 336 0 30.9 25.1 56 56.1 56h336.2zM197 76.7h.1v254.2c0 14.9-12.1 26.9-26.9 26.9H87.3c-14.9 0-26.9-12.1-26.9-26.9V76.7c.1-14.8 12.2-26.7 27-26.6h82.7c14.8 0 26.7 11.9 26.9 26.6zm193.1 112v142.1c0 14.9-12.1 26.9-26.9 26.9h-81.1c-14.8 0-26.8-12.1-26.8-26.9V188.7c0-14.9 12.1-26.9 26.9-26.9h81c14.9 0 26.9 12.1 26.9 26.9z"/><glyph glyph-name="gratipay" unicode="" horiz-adv-x="496" d="M248 440c136.9 0 248-111.1 248-248S384.9-56 248-56 0 55.1 0 192s111.1 248 248 248zm114.6-226.4c8.8 12 19.1 50.4-13.8 72-27.7 18.1-54.2 4.2-68.1-11.9-15.1-16.9-45.8-17.9-61.7 0-13.9 16.1-40.4 30-68.5 11.9-32.7-21.6-22.3-60.1-13.6-72L249.6 60.901z"/><glyph glyph-name="vk" unicode="" horiz-adv-x="576" d="M545 330.3c-7.4-34.3-79.3-135.5-79.4-135.6-6.2-10-8.7-15 0-26.2 3.4-4.8 79.1-76.6 90.3-111.5 4.9-16.6-3.6-25-20.4-25h-58.9c-22.4 0-29 17.9-69 57.9-35 33.7-50 38.1-58.7 38.1-18.8 0-15.4-6.3-15.4-73.1 0-14.5-4.6-22.9-42.1-22.9-62.4 0-131 37.9-179.7 107.8-73.1 102.4-93.1 179.9-93.1 195.5 0 8.8 3.4 16.7 20.2 16.7h58.9c15.1 0 20.8-6.6 26.6-22.9 28.8-84 77.4-157.4 97.4-157.4 7.5 0 10.9 3.5 10.9 22.5V281c-2.2 40-23.4 43.3-23.4 57.5 0 6.5 5.6 13.5 15 13.5h92.6c12.4 0 16.6-6.7 16.6-21.7V213.6c0-12.5 5.7-16.9 9.4-16.9 7.5 0 13.8 4.4 27.5 18.1 42.4 47.4 72.4 120.5 72.4 120.5 3.7 8.8 10.6 16.7 25.6 16.7h58.9c17.8 0 21.5-9.2 17.8-21.7z"/><glyph glyph-name="weibo" unicode="" horiz-adv-x="512" d="M407 270.4c7.6 24-13.4 46.8-37.4 41.7-22-4.8-28.8 28.1-7.1 32.8 50.1 10.9 92.3-37.1 76.5-84.8-6.8-21.2-38.8-10.8-32 10.3zM214.8 1.3C108.5 1.3 0 52.7 0 137.6c0 44.3 28 95.4 76.3 143.7C176 381 279.5 382.2 249.9 287c-4-13.1 12.3-5.7 12.3-6 79.5 33.6 140.5 16.8 114-51.4-3.7-9.4 1.1-10.9 8.3-13.1C520.2 174.2 419.3 1.3 214.8 1.3zm143.7 146.3c-5.4 55.7-78.5 94-163.4 85.7-84.8-8.6-148.8-60.3-143.399-116 5.4-55.7 78.5-94 163.399-85.7 84.8 8.6 148.801 60.3 143.4 116zm-10.6 265.3c102.3 21.6 189.3-74.5 157.399-174.301-8.3-25-44.8-12.2-37.4 12 23.1 71.2-39.4 139.2-111.7 124-25.1-5.4-34.2 32.7-8.3 38.3zm-78.5-311c-17.1-38.8-66.8-60-109.101-46.3-40.8 13.1-58 53.4-40.3 89.7 17.7 35.4 63.1 55.4 103.4 45.1 42-10.8 63.1-50.2 46-88.5zm-86.3 30c-12.9 5.4-30-.3-38-12.9-8.3-12.9-4.3-28 8.6-34 13.1-6 30.8-.3 39.1 12.9 8 13.1 3.7 28.3-9.7 34zm32.6 13.4c-5.1 1.7-11.4-.6-14.3-5.4-2.9-5.1-1.4-10.6 3.7-12.9 5.1-2 11.7.3 14.6 5.4 2.8 5.2 1.1 10.9-4 12.9z"/><glyph glyph-name="renren" unicode="" horiz-adv-x="512" d="M214 278.9c0-110.4-61-205.4-147.6-247.4C30 74.8 8 130.3 8 191.4c0 122.699 89.1 224.399 206 244.1V278.9zM255-56c-42.9 0-83.3 11-118.5 30.4C193.7 10.5 239.9 65.1 255 129c15.5-63.9 61.7-118.5 118.8-154.7C338.7-45 298.3-56 255-56zm190.6 87.5C359 73.5 298 168.4 298 278.9v156.6c116.9-19.7 206-121.4 206-244.1 0-61.1-22-116.601-58.4-159.9z"/><glyph glyph-name="pagelines" unicode="" horiz-adv-x="384" d="M384 135.3c-55.1-136.7-187.1-54-187.1-54C156.4-.5 89.5-53.099 12.299-53.4c-16.1 0-16.6 24.4 0 24.4 64.4.3 120.5 42.7 157.2 110.1-41.1-15.899-118.6-27.899-161.6 82.2 109 44.901 159.1-11.2 178.3-45.5 9.9 24.401 17 50.901 21.6 79.7 0 0-139.7-21.9-149.5 98.1 119.1 47.9 152.6-76.699 152.6-76.699 1.6 16.7 3.3 52.6 3.3 53.4 0 0-106.3 73.7-38.1 165.2 124.6-43 61.4-162.4 61.4-162.4.5-1.6.5-23.8 0-33.4 0 0 45.2 89 136.4 57.5-4.2-134-141.9-106.4-141.9-106.4-4.4-27.4-11.2-53.4-20-77.5 0 0 83 91.8 172 20z"/><glyph glyph-name="stack-exchange" unicode="" d="M17.7 115.7h412.7v-22c0-37.7-29.3-68-65.3-68h-19L259.3-64v89.7H83c-36 0-65.3 30.3-65.3 68v22zm0 23.6v85h412.7v-85H17.7zm0 109.4v85h412.7v-85H17.7zM365 448c36 0 65.3-30.3 65.4-67.7V358H17.7v22.3C17.7 417.7 47 448 83 448h282z"/><glyph glyph-name="vimeo-square" unicode="" d="M400 416c26.5 0 48-21.5 48-48V16c0-26.5-21.5-48-48-48H48C21.5-32 0-10.5 0 16v352c0 26.5 21.5 48 48 48h352zm-16.2-149.6c1.9 41.6-13.6 63-46.5 64-44.3 1.4-74.4-23.6-90.1-75.1 19.6 8.4 48.6 10.6 45.2-22.2-.9-11.1-8.1-27.1-21.5-48.3-37.2-58.7-46.3-39.1-66.8 90.5-5.8 36.5-21.1 53.5-46 51.1-22-2-57.2-38-94.1-70.4l15-19.4c14.3 10.1 22.7 15.1 25.1 15.1 20.8 0 31.5-54.1 56.7-146.4 12.9-34.4 28.6-51.6 47.3-51.6 30.1 0 66.9 28.3 110.4 84.8 42.1 54.1 63.9 96.8 65.3 127.9z"/><glyph glyph-name="slack" unicode="" d="M94.12 132.9c0-25.9-21.16-47.06-47.06-47.06C21.16 85.84 0 107 0 132.9c0 25.9 21.16 47.06 47.06 47.06h47.06V132.9zm23.72 0c0 25.9 21.16 47.06 47.06 47.06 25.9 0 47.06-21.16 47.06-47.06V15.059c0-25.9-21.16-47.06-47.06-47.06-25.9 0-47.06 21.16-47.06 47.06V132.9zm47.06 188.98c-25.9 0-47.06 21.16-47.06 47.06 0 25.9 21.16 47.06 47.06 47.06 25.9 0 47.06-21.16 47.06-47.06v-47.06H164.9zm0-23.72c25.9 0 47.06-21.16 47.06-47.06 0-25.9-21.16-47.06-47.06-47.06H47.059c-25.9 0-47.06 21.16-47.06 47.06 0 25.9 21.16 47.06 47.06 47.06H164.9zm188.98-47.06c0 25.9 21.16 47.06 47.06 47.06 25.9 0 47.06-21.16 47.06-47.06 0-25.9-21.16-47.06-47.06-47.06h-47.06v47.06zm-23.72 0c0-25.9-21.16-47.06-47.06-47.06-25.9 0-47.06 21.16-47.06 47.06v117.841c0 25.9 21.16 47.06 47.06 47.06 25.9 0 47.06-21.16 47.06-47.06V251.1zM283.1 62.12c25.9 0 47.06-21.16 47.06-47.06C330.16-10.84 309-32 283.1-32c-25.9 0-47.06 21.16-47.06 47.06v47.06h47.06zm0 23.72c-25.9 0-47.06 21.16-47.06 47.06 0 25.9 21.16 47.06 47.06 47.06h117.841c25.9 0 47.06-21.16 47.06-47.06 0-25.9-21.16-47.06-47.06-47.06H283.1z"/><glyph glyph-name="wordpress" unicode="" horiz-adv-x="512" d="M61.7 278.6L163.2.6C92.2 35 43.3 107.8 43.3 192c0 30.9 6.6 60.1 18.4 86.6zm337.9-75.9c0-18.2-7-39.3-16-68.7l-21.2-70.9-76.9 228.7c12.8.7 24.3 2 24.3 2 11.4 1.3 10.1 18.2-1.4 17.5 0 0-34.5-2.7-56.7-2.7-20.9 0-56 2.7-56 2.7-11.4.7-12.8-16.8-1.3-17.5 0 0 10.8-1.3 22.3-2l33.1-90.8-46.6-139.6-77.5 230.399c12.8.7 24.3 2 24.3 2 11.4 1.3 10.1 18.2-1.4 17.5 0 0-34.5-2.7-56.7-2.7-4 0-8.7.1-13.7.3 38.1 57.8 103.5 95.9 177.8 95.9 55.401 0 105.8-21.2 143.7-55.9-1 .1-1.9.2-2.8.2-20.9 0-35.7-18.2-35.7-37.8 0-17.5 10.1-32.4 20.9-49.9 8.1-14.2 17.5-32.4 17.5-58.7zm-139.9-29.3L325.1-5.8c.4-1 .9-2 1.5-2.9-22.1-7.8-45.8-12.1-70.6-12.1-20.9 0-41 3.1-60.1 8.7zm183 120.7c16.6-30.3 26-65.1 26-102.1 0-78.5-42.5-147-105.8-183.9l65 187.9c12.2 30.4 16.2 54.6 16.2 76.2 0 7.9-.5 15.1-1.4 21.9zM504 192C504 55.2 392.7-56 256-56 119.2-56 8 55.3 8 192c0 136.8 111.2 248 248 248 136.7 0 248-111.2 248-248zm-11.4 0c0 130.5-106.199 236.6-236.6 236.6-130.5 0-236.6-106.1-236.6-236.6S125.599-44.6 256-44.6c130.5 0 236.6 106.1 236.6 236.6z"/><glyph glyph-name="openid" unicode="" d="M271.5 16l-68-32C88.5-5.7 0 55.5 0 129.8c0 71.5 82.5 131 191.7 144.3v-43c-71.5-12.5-124-53-124-101.3 0-51 58.5-93.3 135.7-103v340l68 33.2V16h.1zM448 157l-131.3 28.5 36.8 20.7c-19.5 11.5-43.5 20-70 24.8v43c46.2-5.5 87.7-19.5 120.3-39.3l35 19.8z"/><glyph glyph-name="yahoo" unicode="" d="M252 156l4-220c-12.7 2.2-23.5 3.9-32.3 3.9-8.4 0-19.2-1.7-32.3-3.9l4 220c-55 94.8-110.4 196.8-174 292 11.9-3.1 23-3.9 33.2-3.9 9 0 20.4.8 34.1 3.9 40.9-72.2 82.1-138.7 135-225.5C261 284.1 314.8 366.6 358.6 448c11.1-2.9 22-3.9 32.9-3.9 11.5 0 23.2 1 35 3.9-34.4-47.9-131.6-216.9-174.5-292z"/><glyph glyph-name="google" unicode="" horiz-adv-x="488" d="M488 186.2C488 44.7 391.1-56 248-56 110.8-56 0 54.8 0 192s110.8 248 248 248c66.8 0 123-24.5 166.3-64.9l-67.5-64.9C258.5 395.4 94.3 331.4 94.3 192c0-86.5 69.1-156.6 153.7-156.6 98.2 0 135 70.4 140.8 106.9H248v85.299h236.1c2.3-12.7 3.9-24.9 3.9-41.4z"/><glyph glyph-name="reddit" unicode="" horiz-adv-x="512" d="M201.5 142.5c-13.8 0-24.9 11.1-24.9 24.6 0 13.8 11.1 24.9 24.9 24.9 13.6 0 24.6-11.1 24.6-24.9 0-13.6-11.1-24.6-24.6-24.6zM504 192C504 55 393-56 256-56S8 55 8 192s111 248 248 248 248-111 248-248zm-132.3 41.2c-9.4 0-17.7-3.9-23.8-10-22.4 15.5-52.6 25.5-86.1 26.6l17.4 78.3 55.4-12.5c0-13.6 11.1-24.6 24.6-24.6 13.8 0 24.9 11.3 24.9 24.9 0 13.6-11.1 24.9-24.9 24.9-9.7 0-18-5.8-22.1-13.8l-61.2 13.6c-3 .8-6.1-1.4-6.9-4.4l-19.1-86.4c-33.2-1.4-63.1-11.3-85.5-26.8-6.1 6.4-14.7 10.2-24.1 10.2-34.9 0-46.3-46.9-14.4-62.8-1.1-5-1.7-10.2-1.7-15.5 0-52.6 59.2-95.2 132-95.2 73.1 0 132.3 42.6 132.3 95.2 0 5.3-.6 10.8-1.9 15.8 31.3 16 19.8 62.5-14.9 62.5zM302.8 117c2.2 2.2 6.1 2.2 8.3 0 2.5-2.5 2.5-6.4 0-8.6-22.9-22.8-87.4-22.8-110.2 0-2.5 2.2-2.5 6.1 0 8.6 2.2 2.2 6.1 2.2 8.3 0 17.5-17.9 75.4-18.2 93.6 0zm7.7 75c13.9 0 24.9-11.1 24.9-24.9 0-13.5-11.1-24.6-24.9-24.6-13.5 0-24.6 11-24.6 24.6 0 13.8 11 24.9 24.6 24.9z"/><glyph glyph-name="reddit-square" unicode="" d="M283.2 102.5c2.7-2.7 2.7-6.8 0-9.2-24.5-24.5-93.8-24.6-118.4 0-2.7 2.4-2.7 6.5 0 9.2 2.4 2.4 6.5 2.4 8.9 0 18.7-19.2 81-19.6 100.5 0 2.4 2.3 6.6 2.3 9 0zm-91.3 53.8c0-14.6-11.9-26.5-26.5-26.5-14.9 0-26.8 11.9-26.8 26.5 0 14.9 11.9 26.8 26.8 26.8 14.6 0 26.5-11.9 26.5-26.8zm90.7 26.8c14.9 0 26.8-11.9 26.8-26.8 0-14.6-11.9-26.5-26.8-26.5-14.6 0-26.5 11.9-26.5 26.5 0 14.9 11.9 26.8 26.5 26.8zM448 368V16c0-26.5-21.5-48-48-48H48C21.5-32 0-10.5 0 16v352c0 26.5 21.5 48 48 48h352c26.5 0 48-21.5 48-48zm-99.7-140.6c-10.1 0-19-4.2-25.6-10.7-24.1 16.7-56.5 27.4-92.5 28.6l18.7 84.2 59.5-13.4c0-14.6 11.9-26.5 26.5-26.5 14.9 0 26.8 12.2 26.8 26.8 0 14.6-11.9 26.8-26.8 26.8-10.4 0-19.3-6.2-23.8-14.9l-65.7 14.6c-3.3.9-6.5-1.5-7.4-4.8l-20.5-92.8c-35.7-1.5-67.8-12.2-91.9-28.9-6.5 6.8-15.8 11-25.9 11-37.5 0-49.8-50.4-15.5-67.5-1.2-5.4-1.8-11-1.8-16.7 0-56.5 63.7-102.3 141.9-102.3 78.5 0 142.2 45.8 142.2 102.3 0 5.7-.6 11.6-2.1 17 33.6 17.2 21.2 67.2-16.1 67.2z"/><glyph glyph-name="stumbleupon-circle" unicode="" horiz-adv-x="496" d="M256 440c137 0 248-111 248-248S393-56 256-56 8 55 8 192s111 248 248 248zm0-177.5c9.8 0 17.8-8 17.7-17.6v-20.6l22.9-10.7 34.1 10.1v23.7c0 40.3-34 72.6-74.7 72.6-40.5 0-74.7-32.1-74.7-72.1V139.5c0-9.9-8-17.8-17.8-17.8s-17.8 7.8-17.8 17.8v45.8H88.4v-46.5c0-41.4 33.5-74.9 74.9-74.9 41 0 74.9 33 74.9 73.9v106.9c0 9.8 8 17.8 17.8 17.8zm167.6-123.6s0 .5.1 46.4h-57.3v-48c0-9.7-8-17.6-17.8-17.6s-17.8 7.8-17.8 17.6v47.1l-34.1-10.1-22.9 10.7v-46.8c0-41 33.7-74.2 74.9-74.2 41.4 0 74.9 33.5 74.9 74.9z"/><glyph glyph-name="stumbleupon" unicode="" horiz-adv-x="512" d="M502.9 182v-69.7C502.9 50.2 452.6-.1 390.5-.1c-61.8 0-112.4 49.8-112.4 111.3v70.201l34.3-16 51.1 15.2V110c0-14.7 12-26.5 26.7-26.5S417 95.3 417 110v72h85.9zm-224.7 58.2v30.9c0 14.7-12 26.7-26.7 26.7s-26.7-12-26.7-26.7V110.8C224.8 49.5 174 0 112.4 0 50.3 0 0 50.3 0 112.3V182h86v-68.6c0-14.9 12-26.7 26.7-26.7s26.701 11.8 26.701 26.7v162.399c0 60 51.3 108.2 112.1 108.2 61 0 112.1-48.5 112.1-109v-35.6l-51.1-15.2z"/><glyph glyph-name="delicious" unicode="" d="M446.5 380c1-3.8 1.5-7.9 1.6-12V15.9c0-26.5-21.5-48-48-48h-352c-4.1 0-8.2.5-12 1.5-7.7 2-14.6 5.8-20.3 11-1.2 1.1-2.3 2.2-3.3 3.3-5.2 5.7-9 12.6-11 20.3C.5 7.8 0 11.9 0 16v352c0 26.5 21.5 48 48 47.9h352c4.1 0 8.2-.5 12-1.5 1.9-.4 3.7-1 5.4-1.7 1.9-.7 3.7-1.5 5.5-2.5 1.4-.7 2.7-1.5 4-2.4 1.1-.8 2.2-1.6 3.3-2.5 2.5-2 4.8-4.3 6.9-6.8 1.7-2.1 3.3-4.5 4.7-6.9 1.3-2.3 2.4-4.6 3.3-7.1.5-1.5 1-3 1.4-4.5zM416 16v176H224v192H48c-8.8 0-16-7.2-16-16V192h192V0h176c8.8 0 16 7.2 16 16z"/><glyph glyph-name="digg" unicode="" horiz-adv-x="512" d="M81.7 275.7V352h51V101.3H0v174.4h81.7zm0-133.4v92.3H50.9v-92.3h30.8zm297.2 133.4H512V32H378.9v40.8h81.8v28.5h-81.8v174.4zm81.8-133.4v92.3h-30.8v-92.3h30.8zm-235.6-41v174.4h133.301V32H225.1v40.8h82.1v28.5h-82.1zm51.2 133.3v-92.3h30.8v92.3h-30.8zM153.3 352h51.3v-51h-51.3v51zm0-76.3h51.3V101.3h-51.3v174.4z"/><glyph glyph-name="pied-piper-pp" unicode="" d="M205.3 273.4c0-21.1-14.2-38.1-31.7-38.1-7.1 0-12.8 1.2-17.2 3.7v68c4.4 2.7 10.1 4.2 17.2 4.2 17.5 0 31.7-16.9 31.7-37.8zm52.6-67c17.4 0 31.7-17 31.7-38.1 0-20.9-14.3-37.8-31.7-37.8-7.1 0-12.8 1.2-17.2 3.7v68c4.4 2.7 10.1 4.2 17.2 4.2zM448 368V16c0-26.5-21.5-48-48-48H48C21.5-32 0-10.5 0 16v352c0 26.5 21.5 48 48 48h352c26.5 0 48-21.5 48-48zM185 192.9c41 0 74.2 35.6 74.2 79.6S226 352.1 185 352.1c-12 0-24.1-3.2-34.6-8.8h-45.7V137l51.8 10.099v50.6c8.6-3.1 18.1-4.8 28.5-4.8zm158.4-25.3c0 44-33.2 79.6-73.9 79.6-3.2 0-6.4-.2-9.6-.7-3.7-12.5-10.1-23.8-19.2-33.4-13.8-15-32.2-23.8-51.8-24.8V32l51.8 10.1v50.6c8.6-3.2 18.2-4.7 28.7-4.7 40.8 0 74 35.6 74 79.6z"/><glyph glyph-name="pied-piper-alt" unicode="" horiz-adv-x="576" d="M244 202l-27.7-5.7-1.7 4.9c6.7.5 12.7 3.7 19.3 3.7 3.8 0 6.9-.9 10.1-2.9zM379.9 4.1c9.5 0 28.2-45.1 33-55.1-35.9-13.4-70.3-15.9-106-9.8L300-15.7c15.8 10.3 60.9 19.8 79.9 19.8zM340.8 271c-7.6 3.5-63.9 6.4-98.8-10 6.3 11.8 13.2 17 25.9 21.8 27.3 10.3 40.2 30.5 58.9 51.1 11.9-8.4 12-24.6 31.6-23v-21.8l6.3-.3c37.4 14.4 74.7 30.2 106.6 54.6 48.3 36.8 52.9 50 81.3 100l2 2.6c-.6-14.1-6.3-27.3-12.4-39.9-30.5-63.8-78.7-100.3-146.8-116.7-12.4-2.9-26.4-3.2-37.6-8.9 1.4-9.8 13.2-18.1 13.2-23 0-3.4-5.5-7.2-7.5-8.6-11.2 12.9-16.1 19.3-22.7 22.1zm214.7 177l-.3-1.4-.6-.6.3.9zM496.3 65.9C516.4 31.7 540 11.6 569-14c-31-19.3-70.4-32.2-103.5-47.2-55.2 46.3-23 229.9-111.5 229.9-3.5-.7-2.4-.3-4.6-1.7 1.1-1.4 2.6-2.9 3.7-4 23.9-20.1 33.4-24.4 34.8-58.6l.3-9.5c.8-21.6-5.5-42.5-9.8-63.5-25.9.7-51.2-11-77.9-2.9-.7 5.9-1.1 30.9.3 41.1 1.4 9.5 33.6 29.9 33 43.7-5.5.6-9.2-2.6-12.4-6.9-13.3-19.5-47.2-41.9-71.3-41.9-16.6 0-56.3 71.5-76.4 85.9-3.2 2.3-5.2 5.4-7.8 8.6-16.1-3.8-139.4-32.2-147.4-32.2-6 0-11.5 4.9-11.5 10.9 0 5.5 3.401 10.7 8.901 11.8l139.6 30.4c-9.5 17.2 12.3 17.5 21.5 20.1 3.2.8 6.3 4 9.5 4 6.3 0 11.8-8.9 13.8-14.1 6.3 1.4 45.7 10.6 49.4 10.6 15.2 0 15.9-20.1 2.9-22.7l-52.3-11.5-.3-4.6c-.3-10.1 45.4-60.1 53.4-60.1 18.1 0 54.9 41.7 54.9 60.1 0 30.7-42.8 12.6-42.8 33.6 0 3.5 1.2 6.6 2.9 9.8l-19.5 5.5c13.1 13.6 13.8 31.7 10.9 50.3 14.7 2.9 26.7 4.6 41.4 4.6 56.9 0 45.7-8.6 65.5-54.3l14.4 7.2c-2.3-34.2-36.2-17.5-35.1-31l.3-6c74.7 2.9 116.1-58.6 150-115.5zM300.1 19.8h8.9L311.9-4l-11.8-3.4v27.2zm-68.7 150.4l13.8 3.5 31.3-50.9-21-13.8zm84.4-154.9c22.6 2.5 32.7 6.3 59.5 6.3.3-1.4.9-3.2.9-4.6 0-7.5-49.4-12.6-58.4-14.1z"/><glyph glyph-name="drupal" unicode="" d="M319.5 333.3C333 325 416 266.3 416 154c0-112-88.5-186-190.2-186C123.8-32 32 48.3 32 157.5c0 109 85 167.5 100.8 175.8 18.7 10.1 32.2 15.3 53.5 32.3 10.5 8.3 19.3 20.2 22 49.5 15.2-18.3 33.5-39.5 46.5-48.3 21.2-14 42.5-19.5 64.7-33.5zM322 7.7c4.2 4.2 1.9 13.1-4.2 8.5-8.5-6.3-27.5-14-54.5-14-34.5 0-51.5 13.3-51.5 13.3-6.2 0-11.3-7.2-6.5-12C231.9-21 301.9-12.4 322 7.7zm-54.5 52.6c-6.5-2.7-28.4-16.8-22.4-25 2.4-3.3 5.2-1.3 12.2 4.7 7.2 5.8 12 11 26.7 11 25.3 0 18.1-19.9 26.5-15.7 9.9 4.9-2.1 20.9-6.2 23.7-7.8 5.1-28.1 4.9-36.8 1.3zM360 43c39.1-3.3 64.5 106 15.8 106-20 0-60.5-41.5-81.8-41.8-24.7-.5-59 49-108.5 48.5-66.4-.4-90.6-78.6-51.8-105.2 57.2-38.7 130.4 42.9 161.3 42 19.5-.7 49.8-48.5 65-49.5z"/><glyph glyph-name="joomla" unicode="" d="M.6 355.9c0 33.3 26.8 60.1 59.8 60.1 30 0 54.5-21.9 59.2-50.2 32.6 7.6 67.1-.6 96.5-30l-44.3-44.3c-20.5 20.5-42.6 16.3-55.4 3.5-14.3-14.3-14.3-37.9 0-52.2l99.5-99.5-44-44.3c-87.7 87.2-49.7 49.7-99.8 99.7-26.8 26.5-35 64.8-24.8 98.9C20.4 303.4.6 327.3.6 355.9zm129.5-116.4c28.5 28.4 81.3 80.8 99.6 99.9 26.6 26.6 64.5 35 98.3 25.1 4.1 29.1 29.2 51.6 59.5 51.6 33 0 59.8-26.9 59.8-60.1 0-30.3-22.7-55.4-51.9-59.5 9.6-33.6 2.3-70-28.9-101.2l-44 44.3C343 260 338.8 282.2 326 295c-14.3 14.3-37.6 14.3-51.9 0-10-10.1-89.7-89.8-99.7-99.8zM396.4 87.3c29.1-4.1 51.6-28.9 51.6-59.1 0-33.3-26.8-60.1-59.8-60.1-29.2 0-53.4 20.7-58.9 48.1-34.7-10.8-75.1-2.2-102.7 28l44 44.3C291 68 313.2 72.2 326 85c14.3 14.3 14.3 37.6 0 51.9l-99.7 99.7 44.3 44.3c104.5-104.4 87.7-87.5 99.5-99.7 25.4-25.4 34.5-61.2 26.3-93.9zm-84.3 53.1c-87.3-87.3-67.4-67.7-99.5-99.7-25.7-25.4-61.5-34.2-94.2-26-6.1-26.9-30-46.7-58.6-46.7C26.8-32 0-5.2 0 28.1c0 28.3 19.5 52.2 46.2 58.2-8.5 33.1-.7 68.1 29.5 98.3l44-44.3c-20.1-20.1-16.3-42-3.2-55.4 14.3-14.3 37.6-14.3 51.9 0 49.3 49.4 12.7 13.4 99.7 99.8z"/><glyph glyph-name="behance" unicode="" horiz-adv-x="576" d="M232 210.8c43.6-12.3 64.7-45.2 64.7-89.7 0-72-60.5-102.9-124.9-102.9H0v354.4h167.1c60.7 0 113.301-17.2 113.301-87.8 0-35.8-16.6-58.8-48.4-74zM77.9 312.1v-82.7h79c27.8 0 47.5 12.1 47.5 42.2 0 32.6-25.3 40.5-53.4 40.5H77.9zm83.3-233.7c31.7 0 57.6 11.2 57.6 47 0 36.3-21.7 50.6-56 50.6H77.9V78.4h83.3zm358.5 240.7H376V354h143.7v-34.9zM576 142.8c0-4.5-.3-9-.6-13.2H390.3c0-41.1 21.7-65.3 63-65.3 21.4 0 49 11.6 55.7 33.5h62.2c-19.1-58.7-58.8-86.3-120.101-86.3-81 0-131.3 54.8-131.3 134.7 0 77 53.1 135.8 131.3 135.8 80.5 0 124.9-63.3 124.9-139.2zM390.4 174h114.699c-3 34-20.8 54.8-56.2 54.8-33.8 0-56.2-21.1-58.5-54.8z"/><glyph glyph-name="behance-square" unicode="" d="M186.5 155c0-19.3-14-25.4-31.2-25.4h-45.1v52.9h46c18.6-.1 30.3-7.8 30.3-27.5zm-7.7 82.3c0-16.3-10.7-22.9-25.8-22.9h-42.7v44.8h39.6c15.2 0 28.9-4.2 28.9-21.9zm132.3-23.2c19.2 0 28.8-11.2 30.5-29.7h-62.2c1.2 18.3 13.4 29.7 31.7 29.7zM448 368V16c0-26.5-21.5-48-48-48H48C21.5-32 0-10.5 0 16v352c0 26.5 21.5 48 48 48h352c26.5 0 48-21.5 48-48zM271.7 263h77.8v18.9h-77.8V263zm-43-110.3c0 24.1-11.4 44.9-35 51.6 17.2 8.2 26.2 17.7 26.2 37 0 38.2-28.5 47.5-61.4 47.5H68v-192h93.1c34.9.2 67.6 16.9 67.6 55.9zM380 167.5c0 41.1-24.1 75.4-67.6 75.4-42.4 0-71.1-31.8-71.1-73.6 0-43.3 27.3-73 71.1-73 33.2 0 54.7 14.9 65.1 46.8h-33.7c-3.7-11.9-18.6-18.1-30.2-18.1-22.4 0-34.1 13.1-34.1 35.3h100.2c.1 2.3.3 4.8.3 7.2z"/><glyph glyph-name="steam" unicode="" horiz-adv-x="496" d="M496 192C496 55 384.8-56 247.6-56 133.8-56 38 20.3 8.6 124.4l95.2-39.3c6.4-32.1 34.9-56.4 68.9-56.4 39.2 0 71.9 32.4 70.2 73.5l84.5 60.2c52.1-1.3 95.8 40.9 95.8 93.5 0 51.6-42 93.5-93.7 93.5s-93.7-42-93.7-93.5v-1.2L176.6 169c-15.5.9-30.7-3.4-43.5-12.1L0 211.9C10.2 339.599 117.1 440 247.6 440 384.8 440 496 329 496 192zM155.7 63.7c19.8-8.2 42.5 1.1 50.8 21 8.3 19.8-1.1 42.5-20.9 50.7l-31.5 13c12.2 4.6 26 4.8 38.9-.6 13-5.4 23.1-15.6 28.5-28.6s5.3-27.3-.1-40.3c-11.2-26.8-42.1-39.6-69-28.4-10.212 4.27-22.397 15.828-27.2 25.8zm173.8 129.9c-34.4 0-62.4 28-62.4 62.3s28 62.3 62.4 62.3 62.4-28 62.4-62.3-27.9-62.3-62.4-62.3zm.1 15.6c25.9 0 46.9 21 46.9 46.8 0 25.9-21 46.8-46.9 46.8s-46.9-21-46.9-46.8c.1-25.8 21.1-46.8 46.9-46.8z"/><glyph glyph-name="steam-square" unicode="" d="M185.2 91.5c7.7 18.5-1 39.7-19.6 47.4l-29.5 12.2c11.4 4.3 24.3 4.5 36.4-.5 12.2-5.1 21.6-14.6 26.7-26.7 5-12.2 5-25.6-.1-37.7-10.5-25.1-39.4-37-64.6-26.5-11.6 4.8-20.4 13.6-25.4 24.2l28.5-11.8c18.6-7.8 39.9.9 47.6 19.4zM400 416c26.5 0 48-21.5 48-48V16c0-26.5-21.5-48-48-48H48C21.5-32 0-10.5 0 16v112.8l89.1-36.9c6-30 32.7-52.7 64.5-52.7 36.6 0 67.3 30.3 65.7 68.8l79 56.3c48.7-1.2 89.6 38.3 89.6 87.5 0 48.2-39.3 87.5-87.6 87.5s-87.6-39.3-87.6-87.5v-1.1l-55.4-80.2c-14.5.8-28.7-3.1-40.7-11.3L0 207.3V368c0 26.5 21.5 48 48 48h352zm-99.7-222.5c-32.2 0-58.4 26.1-58.4 58.3s26.2 58.3 58.4 58.3 58.4-26.2 58.4-58.3c0-32.1-26.2-58.3-58.4-58.3zm.1 14.6c24.2 0 43.9 19.6 43.9 43.8 0 24.2-19.6 43.8-43.9 43.8-24.2 0-43.9-19.6-43.9-43.8 0-24.2 19.7-43.8 43.9-43.8z"/><glyph glyph-name="spotify" unicode="" horiz-adv-x="496" d="M248 440c136.9 0 248-111.1 248-248S384.9-56 248-56 0 55.1 0 192s111.1 248 248 248zM348.7 75.1c8.1 0 15.2 6.3 15.2 15.4s-3.6 12.6-9.7 16.5c-71.4 42.7-155.101 44.3-237 26.2-7.5-1.6-13.6-6.5-13.6-16.8 0-8.1 6.1-15.8 15.8-15.8 2.9 0 8 1.6 11.9 2.6C203 117.9 275.6 116.3 338 78.7c3.9-2.3 6.5-3.6 10.7-3.6zm26.9 65.6c10.9 0 19.3 8.7 19.4 19.5 0 8.7-3.2 14.9-11.3 19.7-49.4 29.4-112.1 45.5-177 45.5-41.6 0-70-5.8-97.8-13.6-10.3-2.9-15.5-10-15.5-20.7s8.7-19.4 19.4-19.4c4.5 0 7.1 1.3 11.9 2.6 82.9 22.5 176.1 7.6 238.6-29.4 3.601-1.9 7.101-4.2 12.3-4.2zm31 76.2c12.2 0 23.2 9.7 23.2 23.3 0 11.9-5.1 18.1-12.9 22.6-55.9 32.6-132.4 47.8-205.4 47.8-42.9 0-82.299-4.9-117.5-15.2-9-2.6-17.4-10.3-17.4-23.9 0-13.3 10.101-23.6 23.301-23.6 4.8 0 9.3 1.6 12.9 2.6 82.4 23 209.7 12.8 280.9-29.7 4.5-2.6 7.7-3.9 12.899-3.9z"/><glyph glyph-name="deviantart" unicode="" horiz-adv-x="320" d="M320 354.8l-98.2-179.1 7.4-9.5H320V38.5H159.1l-13.5-9.2-43.7-84c-.3 0-8.6-8.6-9.2-9.2H0v93.2l93.2 179.4-7.4 9.2H0v127.6h156l13.5 9.2 43.7 84c.3 0 8.6 8.6 9.2 9.2H320v-93.1z"/><glyph glyph-name="soundcloud" unicode="" horiz-adv-x="640" d="M111.4 191.7l5.8-65-5.8-68.3c-.3-2.5-2.2-4.4-4.4-4.4s-4.2 1.9-4.2 4.4l-5.6 68.3 5.6 65c0 2.2 1.9 4.2 4.2 4.2 2.2 0 4.1-2 4.4-4.2zm21.4 45.6c2.5 0 4.7-2.2 4.7-5l5.8-105.6-5.8-68.3c0-2.8-2.2-5-4.7-5-2.8 0-4.7 2.2-5 5l-5 68.3 5 105.6c.3 2.8 2.2 5 5 5zm25.5 24.1c2.8 0 5.3-2.2 5.3-5.3l5.3-130-5.3-67.8c0-3.1-2.5-5.3-5.3-5.3-3.1 0-5.3 2.2-5.6 5.3l-4.4 67.8 4.4 130c.3 3.1 2.5 5.3 5.6 5.3zM7.2 164.8c1.4 0 2.2-1.1 2.5-2.5l5.6-35.6-5.6-35c-.3-1.4-1.1-2.5-2.5-2.5S5 90.3 4.7 91.7l-4.7 35 4.7 35.6c.3 1.4 1.1 2.5 2.5 2.5zm23.6 21.9c1.4 0 2.5-1.1 2.8-2.5l7.2-57.5-7.2-56.4c-.3-1.4-1.4-2.5-2.8-2.5s-2.5 1.1-2.5 2.8l-6.4 56.1 6.4 57.5c0 1.4 1.1 2.5 2.5 2.5zm25.3 11.4c1.7 0 3.1-1.4 3.1-3.3l6.9-68.1-6.9-65.8c0-1.7-1.4-3.1-3.1-3.1-1.6 0-3 1.4-3.3 3.1L47 126.7l5.8 68.1c.2 1.9 1.6 3.3 3.3 3.3zm25.3 2.2c1.9 0 3.6-1.4 3.9-3.6l6.4-70-6.4-67.8c-.3-2.2-2-3.6-3.9-3.6s-3.6 1.4-3.6 3.6L72 126.7l5.8 70c0 2.2 1.7 3.6 3.6 3.6zm241.4 110.9c2.5-1.4 4.1-4.2 4.5-7.2l3.9-177.5-3.9-64.2c0-4.7-3.9-8.6-8.6-8.6s-8.6 3.9-8.9 8.6L308.1 94l-1.7 32.5 3.3 176.7v.8c.2 2.5 1.4 5 3.3 6.7 1.4 1.1 3.4 1.9 5.6 1.9 1.4 0 3.1-.6 4.2-1.4zm-26.7-15.3c2.2-1.4 3.6-3.9 3.9-6.7l3.3-162.8-3.1-58.6-.3-6.701c0-2.3-.8-4.2-2.5-5.6-1.4-1.4-3.4-2.5-5.6-2.5-2.5 0-4.7 1.2-6.4 3.1-1.1 1.4-1.7 3-1.7 4.7v.3c-3.1 65.3-3.1 65.6-3.1 65.6l2.8 160.8.3 1.7c0 2.8 1.4 5.3 3.6 6.701 1.3.8 2.8 1.4 4.4 1.4 1.6 0 3-.6 4.4-1.4zm-111.4-22.5c3.4 0 5.9-2.8 6.1-6.1l5-140.6-5-67.2c-.3-3.3-2.8-5.8-6.1-5.8-3 0-5.5 2.5-5.8 5.8l-4.4 67.2 4.4 140.6c0 3.3 2.7 6.1 5.8 6.1zm376.7-62.8c43.3 0 78.6-35.3 78.5-78.9 0-43.3-35.3-78.3-78.6-78.3H343c-4.7.6-8.6 4.2-8.6 9.2v249.7c0 4.8 1.699 7 7.8 9.2 15.3 6.1 32.5 9.4 50.3 9.4 72.5 0 131.9-55.6 138.3-126.4 9.5 3.901 19.8 6.1 30.6 6.1zm-296.7 60.3c4.2 0 7.2-3.3 7.5-7.8l3.9-136.7-3.9-65.6c0-4.2-3.3-7.5-7.5-7.5s-7.5 3.3-7.8 7.5l-3.3 65.6 3.3 136.7c.3 4.5 3.6 7.8 7.8 7.8zm-53.6 7.8c3.6 0 6.4-3.1 6.7-6.7l4.4-145.3-4.4-66.9c-.3-3.6-3.1-6.4-6.7-6.4-3.3 0-6.1 2.8-6.4 6.4l-3.9 66.9 3.9 145.3c0 3.6 3.1 6.7 6.4 6.7zm26.7-3.4c3.9 0 6.9-3 6.9-6.9l4.2-141.7-4.2-66.4c0-3.8-3.1-6.9-6.9-6.9s-6.6 3-6.9 6.9l-3.9 66.4 3.9 141.7c0 3.8 3 6.9 6.9 6.9z"/><glyph glyph-name="vine" unicode="" horiz-adv-x="384" d="M384 193.3v-52.1c-18.4-4.2-36.9-6.1-52.1-6.1C295 57.7 228.9-8.7 206.8-21.1c-14-7.9-27.1-8.4-42.7.8C137-4 34.2 80.3 0 345.3h74.5C93.2 186.2 139 104.6 189.3 43.5c27.9 27.901 54.799 65.1 75.6 106.9-49.801 25.3-80.1 80.9-80.1 145.6 0 65.6 37.7 115.1 102.2 115.1 114.9 0 106.2-127.898 81.599-181.5 0 0-46.4-9.199-63.5 20.5 3.4 11.301 8.2 30.801 8.2 48.5 0 31.301-11.3 46.601-28.4 46.601-18.2 0-30.8-17.1-30.8-50 .1-79.2 59.4-118.7 129.9-101.9z"/><glyph glyph-name="codepen" unicode="" horiz-adv-x="512" d="M502.285 288.296c6.001-3.999 9.715-11.143 9.716-18.285v-156c0-7.142-3.715-14.286-9.715-18.285l-234-156.021c-8.06-4.96-16.584-4.915-24.571 0l-234 156.02C3.714 99.726 0 106.87 0 114.013V270.01c0 7.142 3.714 14.286 9.714 18.285l234 156c8.06 4.96 16.584 4.915 24.571 0zM278 384.869V282.297l95.429-63.715 76.857 51.429zm-44 0L61.714 270.011l76.857-51.429 95.43 63.715V384.87zM44 228.868v-73.714l55.143 36.857zM234-.847v102.571l-95.429 63.716-76.857-51.43zm22 140.858l77.715 52-77.715 52-77.715-52zM278-.847L450.286 114.01l-76.857 51.43-95.43-63.716V-.846zm190 156.001v73.714l-55.143-36.858z"/><glyph glyph-name="jsfiddle" unicode="" horiz-adv-x="576" d="M510.634 210.538c45.688-25.334 68.372-74.56 56.832-122.634-12.104-50.42-55.548-86.66-108.212-87.293-84.03-1.012-168.079-.459-252.12-.48-30.322-.007-60.668-.493-90.959.539C68.081 2.306 24.399 36.534 10.568 82.102c-14.129 46.551 2.19 94.623 41.901 124.615 2.547 1.924 4.87 6.52 4.515 9.545-3.746 31.86 7.145 57.671 32.676 76.408 26.282 19.288 55.228 21.588 85.331 9.167 2.366-.975 4.64-2.177 7.824-3.685 16.522 27.533 38.122 48.652 65.492 63.902 92.86 51.74 210.954 8.312 246.85-91.645 5.558-15.477 6.745-32.608 9.097-49.095.717-5.028 1.654-8.155 6.38-10.777zm21.107-156.88c39.313 48.375 22.418 117.668-35.143 144.497-7.435 3.466-9.725 7.744-9.847 15.894-1.87 125.129-132.78 187.063-230.24 132.697-26.114-14.568-46.45-34.896-60.671-61.294-7.591-14.09-11.929-7.978-22.198-2.527-24.612 13.063-49.047 12.64-72.034-3.083-21.967-15.025-31.91-36.62-26.42-62.98 2.409-11.571-.914-17.064-10.096-23.138-38.19-25.257-53.088-74.86-34.186-116.105 18.436-40.23 51.314-59.663 95.175-59.995.7-.005 163.728-.546 163.728.155 56.886 0 113.778-.552 170.652.229 28.938.398 53.05 13.218 71.28 35.65zm-87.789 80.499C438.103 103 409.33 79.06 377.286 79.061c-16.953.002-32.059 6.546-44.08 17.705-27.696 25.714-71.14 74.98-95.937 93.388-20.055 14.888-41.989 12.333-60.271-3.782-49.996-44.071 15.86-121.775 67.062-77.189 4.55 3.96 7.841 9.543 12.745 12.845 8.184 5.509 20.766.884 13.168-10.622-17.358-26.284-49.33-38.197-78.863-29.3-28.897 8.702-48.84 35.967-48.626 70.178 1.225 22.484 12.364 43.06 35.414 55.965 22.575 12.637 46.369 13.145 66.99-2.474 50.792-38.476 75.579-81.745 107.297-101.245 24.558-15.1 54.254-7.363 68.823 17.506 28.83 49.209-34.592 105.016-78.868 63.46-3.989-3.744-6.917-8.932-11.41-11.72-10.975-6.811-17.333 4.113-12.81 10.353 20.704 28.553 50.465 40.44 83.272 28.214 31.429-11.714 49.108-44.367 42.76-78.186z"/><glyph glyph-name="rebel" unicode="" horiz-adv-x="512" d="M256.5-56C117.2-56 9 60.2 13.2 198.1c2.8 79.2 43.2 152.2 116.5 200.4.3 0 1.9.6 1.1-.8-5.8-5.5-111.3-129.8-14.1-226.4 49.8-49.5 90-2.5 90-2.5 38.5 50.1-.6 125.9-.6 125.9-10 24.9-45.7 40.1-45.7 40.1l28.8 31.8c24.4-10.5 43.2-38.7 43.2-38.7.8 29.6-21.9 61.4-21.9 61.4l44.6 50.7 44.3-50.1c-20.5-28.8-21.9-62.6-21.9-62.6 13.8 23 43.5 39.3 43.5 39.3l28.5-31.8c-27.4-8.9-45.4-39.9-45.4-39.9-15.8-28.5-27.1-89.4.6-127.3 32.4-44.6 87.7 2.8 87.7 2.8 102.7 91.9-10.5 225-10.5 225-6.1 5.5.8 2.8.8 2.8 50.1-36.5 114.6-84.4 116.2-204.8C500.9 47.799 399-56 256.5-56z"/><glyph glyph-name="empire" unicode="" horiz-adv-x="496" d="M287.6 393.8c-10.8 2.2-22.1 3.3-33.5 3.6v18.2c78.1-2.2 146.101-44 184.601-106.6l-15.8-9.1c-6.1 9.7-12.7 18.8-20.2 27.1l-18-15.5c-26 29.6-61.4 50.7-101.9 58.4zM53.4 125.6c3.9-10.8 8.3-21.1 13.6-31.1l-15.8-9.1C34.1 117 24.1 153.5 24.1 192s9.9 75 27.1 106.5l15.8-9.099c-5.3-9.7-10-20.2-13.6-31l22.7-7.7c-6.4-18.3-9.7-38.2-9.7-58.7s3.6-40.4 10-58.7zM213.1 14l-4.7-23.8c10.8-1.9 22.2-3.3 33.5-3.6v-18.3C163.8-29.4 95.5 12.6 57 74.9l16 9.4c5.8-9.7 12.701-18.8 20.201-27.4l18 15.8c26.1-29.6 61.5-50.7 101.899-58.7zM93.3 327.1c-7.5-8.3-14.1-17.5-20.1-27.2L57.4 309C95.9 371.6 163.9 413.4 242 415.6v-18.199c-11.4-.3-22.7-1.4-33.5-3.6l4.7-23.8c-40.5-7.7-75.9-28.8-101.9-58.4zM402.7 56.9c7.5 8.6 14.4 17.7 20.1 27.4l16.1-9.4C400.4 12.6 332.1-29.5 254-31.7v18.3c11.4.3 22.7 1.7 33.5 3.6L282.8 14c40.5 8 75.9 29.1 101.9 58.7zM496 192C496 55 385-56 248-56S0 55 0 192s111 248 248 248 248-111 248-248zm-12.2 0c0 130.1-105.7 235.8-235.8 235.8S12.2 322.1 12.2 192 117.9-43.8 248-43.8 483.8 61.9 483.8 192zm-39 106.6C462 267 471.9 230.5 471.9 192s-9.9-75-27.1-106.4L429 94.7c5.3 10 9.7 20.2 13.6 31l-23 7.7c6.4 18.3 10 38.2 10 58.7s-3.3 40.4-9.7 58.7l22.7 7.7c-3.6 10.8-8.3 21.3-13.6 31zm-183-177.7l13.3-66.7c-8.6-1.7-17.7-2.8-27.1-2.8s-18.5 1.1-27.1 2.8l13.3 66.7c-16.3 3.3-30.5 11.6-40.7 23.5l-51.2-44.8c-11.9 13.6-21.3 29.4-27.1 46.8l64.2 22.1c-2.5 7.4-3.9 15.2-3.9 23.5s1.4 16 3.9 23.5l-64.5 22.1c6.1 17.5 15.5 33.2 27.4 46.8l51.2-44.8c10.3 11.9 24.4 20.5 40.7 23.8l-13.3 66.4c8.6 2 17.7 2.8 27.1 2.8s18.5-.9 27.1-2.8l-13.3-66.4c16.3-3.3 30.5-11.9 40.7-23.8l51.2 44.8c11.9-13.6 21.3-29.4 27.4-46.8l-64.5-22.1c2.5-7.4 3.9-15.2 3.9-23.5s-1.4-16-3.9-23.5l64.2-22.1c-5.8-17.5-15.2-33.2-27.1-46.8l-51.2 44.8c-10.3-11.9-24.4-20.2-40.7-23.5z"/><glyph glyph-name="git-square" unicode="" d="M100.59 113.76c48.57-3.31 58.95-2.11 58.95-11.94 0-20-65.55-20.06-65.55-1.52.01 5.09 3.29 9.4 6.6 13.46zm27.95 116.64c30.96 0 31.76-44.47-.75-44.47-33 0-31.54 44.47.75 44.47zM448 368V16c0-26.496-21.504-48-48-48H48C21.504-32 0-10.496 0 16v352c0 26.496 21.504 48 48 48h352c26.496 0 48-21.504 48-48zm-227-69.31c0-14.49 8.38-22.88 22.86-22.88 14.74 0 23.13 8.39 23.13 22.88 0 14.49-8.37 22.31-23.11 22.31-14.48 0-22.88-7.84-22.88-22.31zM199.18 253h-49.55c-25 6.55-81.56 4.85-81.56-46.75 0-18.8 9.4-32 21.85-38.11C74.23 153.77 66.8 147 66.8 137.4c0-6.87 2.79-13.22 11.18-16.76-8.9-8.4-14-14.48-14-25.92C64 74.65 81.53 63 127.52 63c44.22 0 69.87 16.51 69.87 45.73 0 36.67-28.23 35.32-94.77 39.38l8.38 13.43c17-4.74 74.19-6.23 74.19 42.43 0 11.69-4.83 19.82-9.4 25.67l23.38 1.78zm84.34-109.84l-13 1.78c-3.82.51-4.07 1-4.07 5.09v105.45h-52.6l-2.79-20.57c15.75-5.55 17-4.86 17-10.17V150c0-5.62-.31-4.58-17-6.87v-20.06h72.42zM384 133l-6.87 22.37c-40.93-15.37-37.85 12.41-37.85 16.73v60.72h37.85v25.41h-35.82c-2.87 0-2-2.52-2 38.63h-24.18c-2.79-27.7-11.68-38.88-34-41.42v-22.62c20.47 0 19.82.85 19.82-2.54v-66.57c0-28.72 11.43-40.91 41.67-40.91 14.45 0 30.45 4.83 41.38 10.2z"/><glyph glyph-name="git" unicode="" horiz-adv-x="512" d="M216.29 289.61l.04-34.55-37.41-2.84c7.27-9.36 15-22.37 15-41.07 0-77.89-91.43-75.47-118.7-67.89l-13.43-21.55c106.47-6.5 151.63-4.34 151.63-63 0-46.76-41.04-73.18-111.79-73.18C28.05-14.47 0 4.24 0 36.35c0 18.3 8.13 28.04 22.4 41.45C8.98 83.47 4.51 93.61 4.51 104.61c0 15.36 11.9 26.21 37 49.21-20 9.77-35 30.91-35 61C6.51 297.37 97 300.1 137 289.61h79.29zm-63.42-241.9c0 15.74-16.61 13.81-94.32 19.11-5.3-6.54-10.57-13.4-10.57-21.54 0-29.67 104.89-29.63 104.89 2.43zm-50.81 134.58c52.02 0 50.74 71.16 1.2 71.16-51.66 0-54-71.16-1.2-71.16zm133.3-100.51v32.1c26.75 3.66 27.24 2 27.24 11v119.51c0 8.5-2.05 7.38-27.24 16.26l4.47 32.92H324V124.86c0-6.51.4-7.32 6.51-8.14l20.73-2.84v-32.1H235.36zm52.45 244.31c-23.17 0-36.59 13.43-36.59 36.61s13.42 35.77 36.59 35.77c23.58 0 37-12.62 37-35.77 0-23.15-13.42-36.61-37-36.61zM512 97.54c-17.49-8.53-43.1-16.26-66.28-16.26-48.38 0-66.67 19.5-66.67 65.46v106.51c0 5.42 1.05 4.06-31.71 4.06v36.19c35.78 4.07 50 22 54.47 66.27h38.63c0-65.83-1.34-61.81 3.26-61.81H501v-40.65h-60.56v-97.15c0-6.92-4.92-51.41 60.57-26.84z"/><glyph glyph-name="hacker-news" unicode="" d="M0 416h448V-32H0v448zm21.2-197.2H21c.1.1.2.3.3.4 0-.1 0-.3-.1-.4zm218-53.9L320 320h-34.8c-54.8-101.2-48.3-98.6-60.6-125.6-10.1 24.4-6.8 27.3-59.3 125.6H128l79.8-153.3V64h31.4v100.9z"/><glyph glyph-name="tencent-weibo" unicode="" horiz-adv-x="384" d="M72.3-47.8c1.4-19.9-27.6-22.2-29.7-2.9C31 79.2 73.7 188.8 144 262.5c-15.6 34 9.2 77.1 50.6 77.1 30.3 0 55.1-24.6 55.1-55.1 0-44-49.5-70.8-86.9-45.1C97.1 168.1 61.4 69.6 72.3-47.8zM192 447.9c92 0 166.6-74.6 166.6-166.5 0-102.301-93.3-185.5-204-162.301-19 4.7-12.5 33.2 6.6 29.1 80.8-20.8 167.7 42.3 167.7 133.1 0 75.5-61.5 136.9-136.9 136.9C91 418.2 23.7 311.6 70 219c9-17.9-17.599-30.8-26.3-13.4-56 108.1 22.4 242.3 148.3 242.3z"/><glyph glyph-name="qq" unicode="" d="M433.754 27.555c-11.526-1.393-44.86 52.74-44.86 52.74 0-31.344-16.136-72.246-51.051-101.785 16.842-5.192 54.843-19.167 45.803-34.421-7.316-12.343-125.51-7.88-159.633-4.037-34.122-3.844-152.315-8.306-159.632 4.037-9.044 15.25 28.918 29.214 45.784 34.415-34.92 29.54-51.059 70.445-51.059 101.792 0 0-33.334-54.134-44.86-52.741-5.37.65-12.423 29.644 9.347 99.704 10.262 33.024 21.995 60.478 40.145 105.779C60.682 349.936 108.982 447.994 224 448c113.737-.006 163.156-96.133 160.264-214.963 18.118-45.223 29.912-72.85 40.144-105.778 21.768-70.06 14.716-99.053 9.346-99.704z"/><glyph glyph-name="weixin" unicode="" horiz-adv-x="576" d="M385.2 280.4c-92.4 0-165.4-69.1-165.3-154 0-14.2 2.2-27.9 6.2-40.8-6.2-.5-12.1-.8-18.3-.8-24.4 0-43.8 4.9-68.2 9.7l-68-34.1L90.9 119C42.3 153.1 13 197.2 13 250.6 13 343.2 100.5 416 207.7 416c95.6 0 179.7-58.3 196.3-136.7-6.2.8-12.4 1.1-18.8 1.1zm-104.5 52.9c-14.7 0-29.2-9.7-29.3-24.4 0-14.5 14.5-24.2 29.3-24.2 14.5 0 24.2 9.7 24.2 24.2 0 14.7-9.7 24.4-24.2 24.4zm-136.4-48.6c14.8 0 24.4 9.6 24.4 24.2 0 14.7-9.6 24.4-24.4 24.4-14.5 0-29.3-9.6-29.3-24.4 0-14.5 14.8-24.2 29.3-24.2zM563 128.6c0-43.8-29-82.7-68.2-112.1l14.8-48.6-53.4 29.3c-19.7-4.8-39.3-9.9-58.6-9.9-92.6 0-165.4 63.4-165.4 141.3s72.7 141.3 165.4 141.3c87.5 0 165.4-63.4 165.4-141.3zm-219.1 24.5c14.7 0 24.4 9.6 24.4 19.6 0 9.6-9.6 19.3-24.4 19.3-9.6 0-19.3-9.6-19.3-19.3 0-9.9 9.6-19.6 19.3-19.6zm107.1 0c14.5 0 24.5 9.6 24.4 19.6 0 9.6-9.9 19.3-24.4 19.3-9.6 0-19.3-9.6-19.3-19.3 0-9.9 9.6-19.6 19.3-19.6z"/><glyph glyph-name="slideshare" unicode="" horiz-adv-x="512" d="M187.7 294.3c34 0 61.7-25.7 61.7-57.7 0-31.7-27.7-57.7-61.7-57.7s-61.7 26-61.7 57.7c0 32 27.7 57.7 61.7 57.7zm143.4 0c34.3 0 61.8-25.7 61.7-57.7 0-31.7-27.4-57.7-61.7-57.7-34 0-61.7 26-61.7 57.7 0 32 27.7 57.7 61.7 57.7zm156.6-90c15.2 10.5 25.2-4 16.1-17.8-18.3-22.6-53.2-50.3-106.3-72 56.3-191.7-137.4-222.3-134.3-124 0 .7-.3 53.8-.3 93.5-4.301.8-8.6 2-13.7 3.1 0-40-.3-95.9-.3-96.6 3.1-98.2-190.601-67.6-134.301 124.1-53.2 21.7-88 49.4-106.3 72-9.1 13.7.9 28.301 16 17.7 2-1.399 4.3-2.899 6.3-4.3v198.3c0 27.401 20.6 49.7 46 49.7h359.1c25.4 0 46-22.299 46-49.7V200zm-30.5-19.2h.1v190.601c0 32.8-10.6 45.7-40.9 45.7H98.7c-31.7 0-40.6-10.8-40.6-45.7v-192.4c67.7-35.4 125.7-29.1 157.4-28 13.4.3 22-2.3 27.1-7.7 1.7-1.6 10-9.4 20.3-17.1 1.1 15.8 10 25.8 33.7 24.9 32.3-1.4 91.7-7.7 160.6 29.7z"/><glyph glyph-name="twitch" unicode="" d="M40.1 416H438V141.8l-117-117h-87L177.2-32H117v56.8H10v314.3zm357.8-254.1v214h-321V95h90.3V38.2L224 95h107zM331 299V182.1h-40.1V299H331zm-107 0V182.1h-40.1V299H224z"/><glyph glyph-name="yelp" unicode="" horiz-adv-x="384" d="M42.9 207.68l99.62-48.61c19.2-9.4 16.2-37.51-4.5-42.71L30.5 89.55c-1.511-.38-4-.687-5.558-.687-11.268 0-21.415 9.088-22.652 20.288-.71 6.181-1.286 16.25-1.286 22.472 0 17.81 4.608 45.966 10.286 62.847 2.885 8.568 12.566 15.522 21.607 15.522 2.908 0 7.389-1.036 10.003-2.312zm44-239.25c-5.485 3.752-9.927 12.19-9.927 18.836 0 4.829 2.619 11.663 5.847 15.253l74.21 82.4c14.31 15.811 40.51 5.201 39.81-16.099L192.94-42c-.412-12.148-10.612-22.007-22.767-22.007-1.071 0-2.797.146-3.853.328-23.869 4.042-59.449 18.427-79.42 32.109zM232.24 78.35c-11.3 18.11 6.2 40.41 26.51 33.91L364.17 78c8.69-2.89 15.742-12.667 15.742-21.825 0-2.813-.964-7.165-2.152-9.715-10.418-21.88-34.033-52.169-52.71-67.61-3.506-2.89-10.04-5.234-14.582-5.234-6.997 0-15.697 4.809-19.418 10.734zm148.33 132.23c1.047-2.416 1.937-6.513 1.937-9.146 0-9.498-7.396-19.382-16.507-22.064l-106.64-30.51c-20.5-5.9-37.1 17.01-25.2 34.71l62 91.92c3.75 5.557 12.235 10.065 18.938 10.065 4.745 0 11.493-2.538 15.062-5.666 18.166-16.036 40.75-47.086 50.41-69.31zM62.11 417.82c29.47 14.03 79.793 27.514 112.33 30.1.504.04 1.325.074 1.83.074 12.515 0 22.671-10.156 22.671-22.67V216.78c0-23.3-30.91-31.6-42.611-11.4L52.21 385.82c-1.682 2.921-3.046 8.029-3.046 11.4 0 7.931 5.8 17.16 12.946 20.6z"/><glyph glyph-name="paypal" unicode="" horiz-adv-x="384" d="M111.4 152.1c-3.5-19.2-17.4-108.699-21.5-134-.3-1.8-1-2.5-3-2.5H12.3C4.7 15.6-.8 22.2.2 29.5l58.6 371.9c1.5 9.6 10.1 16.9 20 16.9 152.3 0 165.1 3.7 204-11.4 60.1-23.3 65.6-79.5 44-140.3-21.5-62.6-72.5-89.5-140.1-90.3-43.401-.7-69.5 7-75.3-24.2zM357.1 296c28.4-21.2 30.3-57.8 23.8-92.6C364.4 119.9 309 91.1 238 91.1c-15 0-24.7 2.3-29.299-19.7-15.5-97.4-13.7-85.9-14.4-91.3-1.7-8.6-8.8-14.9-17.4-14.9h-63.5c-7.1 0-11.6 5.8-10.6 12.9 0 0 4.5 29.3 27.1 169.7.8 6.1 4.8 9.4 10.9 9.4 54 0 164.6-9.9 204.5 103.899 3.7 11.1 6.8 22.2 8.8 33.6.5 3.1 1.2 2.6 3 1.3z"/><glyph glyph-name="google-wallet" unicode="" d="M156.8 321.2c37.6-60.6 64.2-113.101 84.3-162.5-8.3-33.8-18.8-66.5-31.3-98.3-13.2 52.3-26.5 101.3-56 148.5 6.5 36.4 2.3 73.6 3 112.3zM109.3 248c5 0 10-2.5 13-6.5 43.8-59.8 66.3-123.8 82.5-193.5H101.3c-20 69.5-49.5 133-91.7 187.3-4 5.2 0 12.7 6.5 12.7h93.2zm47.8 88h108.7C340.6 233 397 106 409-32H295.3c-8.2 133.5-69.7 260-138.2 368zm251.8 68.5c19-67.5 31.1-139 31.1-212.6 0-69.5-9.5-142.5-25.3-203-10.9 92.5-42.4 184.6-90.6 270.8-4.2 50.5-13.3 99.5-26.5 146-1.2 5.3 2.5 10.3 7.8 10.3h88.3c7 0 13.4-4.7 15.2-11.5z"/><glyph glyph-name="cc-visa" unicode="" horiz-adv-x="576" d="M470.1 216.7s7.6-37.2 9.3-45H446c3.3 8.9 16 43.5 16 43.5-.2-.3 3.3 9.1 5.3 14.9zM576 368V16c0-26.5-21.5-48-48-48H48C21.5-32 0-10.5 0 16v352c0 26.5 21.5 48 48 48h480c26.5 0 48-21.5 48-48zM152.5 116.8L215.7 272h-42.5l-39.3-106-4.3 21.5-14 71.4c-2.3 9.9-9.4 12.7-18.2 13.1H32.7l-.7-3.1c15.8-4 29.9-9.8 42.2-17.1l35.8-135h42.5zm94.4-.2L272.1 272h-40.2l-25.1-155.4h40.1zm139.9 50.8c.2 17.7-10.6 31.2-33.7 42.3-14.1 7.1-22.7 11.9-22.7 19.2.2 6.6 7.3 13.4 23.1 13.4 13.1.3 22.7-2.8 29.9-5.9l3.6-1.7 5.5 33.6c-7.9 3.1-20.5 6.6-36 6.6-39.7 0-67.6-21.2-67.8-51.4-.3-22.3 20-34.7 35.2-42.2 15.5-7.6 20.8-12.6 20.8-19.3-.2-10.4-12.6-15.2-24.1-15.2-16 0-24.6 2.5-37.7 8.3l-5.3 2.5-5.6-34.9c9.4-4.3 26.8-8.1 44.8-8.3 42.2-.1 69.7 20.8 70 53zM528 116.6L495.6 272h-31.1c-9.6 0-16.9-2.8-21-12.9l-59.7-142.5H426s6.9 19.2 8.4 23.3H486c1.2-5.5 4.8-23.3 4.8-23.3H528z"/><glyph glyph-name="cc-mastercard" unicode="" horiz-adv-x="576" d="M482.9 37.7c0-6.8-4.6-11.7-11.2-11.7-6.8 0-11.2 5.2-11.2 11.7s4.4 11.7 11.2 11.7c6.6 0 11.2-5.2 11.2-11.7zM172.1 49.4c6.5 0 10.8-5.2 10.9-11.7 0-6.8-4.4-11.7-10.9-11.7-7.1 0-11.2 5.2-11.2 11.7s4.1 11.7 11.2 11.7zm117.5.3c5.2 0 8.7-3 9.6-8.7h-19.1c.8 5.2 4.1 8.7 9.5 8.7zm107.8-.3c6.8 0 11.2-5.2 11.2-11.7 0-6.8-4.4-11.7-11.2-11.7-6.8 0-10.9 5.2-10.9 11.7s4.1 11.7 10.9 11.7zm105.9-26.1c0-.3.3-.5.3-1.1 0-.3-.3-.5-.3-1.1-.3-.3-.3-.5-.5-.8-.3-.3-.5-.5-1.1-.5-.3-.3-.5-.3-1.1-.3-.3 0-.5 0-1.1.3-.3 0-.5.3-.8.5-.3.3-.5.5-.5.8-.3.5-.3.8-.3 1.1 0 .5 0 .8.3 1.1 0 .5.3.8.5 1.1.3.3.5.3.8.5.5.3.8.3 1.1.3.5 0 .8 0 1.1-.3.5-.3.8-.3 1.1-.5.3-.2.2-.6.5-1.1zm-2.2-1.4c.5 0 .5.3.8.3.3.3.3.5.3.8s0 .5-.3.8c-.3 0-.5.3-1.1.3h-1.6v-3.5h.8V22h.3l1.1-1.4h.8zM576 367V15c0-26.5-21.5-48-48-48H48C21.5-33 0-11.5 0 15v352c0 26.5 21.5 48 48 48h480c26.5 0 48-21.5 48-48zM64 227.4c0-76.5 62.1-138.5 138.5-138.5 27.2 0 53.9 8.2 76.5 23.1-72.9 59.3-72.4 171.2 0 230.5-22.6 15-49.3 23.1-76.5 23.1-76.4.1-138.5-62-138.5-138.2zm224-108.8c70.5 55 70.2 162.2 0 217.5-70.2-55.3-70.5-162.6 0-217.5zM145.7 42.3c0 8.7-5.7 14.4-14.7 14.7-4.6 0-9.5-1.4-12.8-6.5-2.4 4.1-6.5 6.5-12.2 6.5-3.8 0-7.6-1.4-10.6-5.4V56h-8.2V19.3h8.2c0 18.9-2.5 30.2 9 30.2 10.2 0 8.2-10.2 8.2-30.2h7.9c0 18.3-2.5 30.2 9 30.2 10.2 0 8.2-10 8.2-30.2h8.2v23h-.2zM190.6 56h-7.9v-4.4C180 54.9 176.2 57 171 57c-10.3 0-18.2-8.2-18.2-19.3 0-11.2 7.9-19.3 18.2-19.3 5.2 0 9 1.9 11.7 5.4v-4.6h7.9V56zm40.5-25.6c0 15-22.9 8.2-22.9 15.2 0 5.7 11.9 4.8 18.5 1.1l3.3 6.5c-9.4 6.1-30.2 6-30.2-8.2 0-14.3 22.9-8.3 22.9-15 0-6.3-13.5-5.8-20.7-.8l-3.5-6.3c11.2-7.6 32.6-6 32.6 7.5zm35.4-9.3l-2.2 6.8c-3.8-2.1-12.2-4.4-12.2 4.1v16.6h13.1V56h-13.1v11.2h-8.2V56h-7.6v-7.3h7.6V32c0-17.6 17.3-14.4 22.6-10.9zm13.3 13.4h27.5c0 16.2-7.4 22.6-17.4 22.6-10.6 0-18.2-7.9-18.2-19.3 0-20.5 22.6-23.9 33.8-14.2l-3.8 6c-7.8-6.4-19.6-5.8-21.9 4.9zM338.9 56c-4.6 2-11.6 1.8-15.2-4.4V56h-8.2V19.3h8.2V40c0 11.6 9.5 10.1 12.8 8.4zm10.6-18.3c0 11.4 11.6 15.1 20.7 8.4l3.8 6.5c-11.6 9.1-32.7 4.1-32.7-15 0-19.8 22.4-23.8 32.7-15l-3.8 6.5c-9.2-6.5-20.7-2.6-20.7 8.6zM416.2 56H408v-4.4c-8.3 11-29.9 4.8-29.9-13.9 0-19.2 22.4-24.7 29.9-13.9v-4.6h8.2V56zm33.7 0c-2.4 1.2-11 2.9-15.2-4.4V56h-7.9V19.3h7.9V40c0 11 9 10.3 12.8 8.4zm40.3 14.9h-7.9V51.6c-8.2 10.9-29.9 5.1-29.9-13.9 0-19.4 22.5-24.6 29.9-13.9v-4.6h7.9v51.7zm7.6 75.1v-4.6h.8v4.6h1.9v.8h-4.6v-.8h1.9zm6.6-123.8c0 .5 0 1.1-.3 1.6-.3.3-.5.8-.8 1.1-.3.3-.8.5-1.1.8-.5 0-1.1.3-1.6.3-.3 0-.8-.3-1.4-.3-.5-.3-.8-.5-1.1-.8-.5-.3-.8-.8-.8-1.1-.3-.5-.3-1.1-.3-1.6 0-.3 0-.8.3-1.4 0-.3.3-.8.8-1.1.3-.3.5-.5 1.1-.8.5-.3 1.1-.3 1.4-.3.5 0 1.1 0 1.6.3.3.3.8.5 1.1.8s.5.8.8 1.1c.3.6.3 1.1.3 1.4zm3.2 124.7h-1.4l-1.6-3.5-1.6 3.5h-1.4v-5.4h.8v4.1l1.6-3.5h1.1l1.4 3.5v-4.1h1.1v5.4zm4.4 80.5c0 76.2-62.1 138.3-138.5 138.3-27.2 0-53.9-8.2-76.5-23.1 72.1-59.3 73.2-171.5 0-230.5 22.6-15 49.5-23.1 76.5-23.1 76.4-.1 138.5 61.9 138.5 138.4z"/><glyph glyph-name="cc-discover" unicode="" horiz-adv-x="576" d="M520.4 251.9c0-8.4-5.5-12.8-15.8-12.8h-4.7V264h4.9c10.1 0 15.6-4.2 15.6-12.1zM528 416c26.5 0 48-21.5 48-48V16c0-26.5-21.5-48-48-48H48C21.5-32 0-10.5 0 16v352c0 26.5 21.5 48 48 48h480zm-44.1-138.9v-82h16v32.8h2.2l22.2-32.8h19.6l-25.8 34.4c12.1 2.5 18.7 10.6 18.7 23.2 0 28.5-30.3 24.4-52.9 24.4zM428 277v-82h45.3v13.8H444V231h28.3v13.8H444V263h29.3v14H428zm-68.7 0h-17.5l35-84.2h8.6l35.5 84.2h-17.5l-22.2-55.2zm-55.9 3c-24.6 0-44.6-19.9-44.6-44.6 0-24.6 19.9-44.6 44.6-44.6 24.6 0 44.6 19.9 44.6 44.6 0 24.6-19.9 44.6-44.6 44.6zm-49.3-6.1c-30.2 15-63.3-6.8-63.3-38 0-32.5 33.6-52.5 63.3-38.2v19c-19.3-19.3-46.8-5.8-46.8 19.2 0 23.7 26.7 39.1 46.8 19v19zm-97.2-66.3c-7.6 0-13.8 3.7-17.5 10.8l-10.3-9.9c17.8-26.1 56.6-18.2 56.6 11.3 0 13.1-5.4 19-23.6 25.6-9.6 3.4-12.3 5.9-12.3 10.3 0 8.7 14.5 14.1 24.9 2.5l8.4 10.8c-19.1 17.1-49.7 8.9-49.7-14.3 0-11.3 5.2-17.2 20.2-22.7 25.7-9.1 14.7-24.4 3.3-24.4zM55.4 195c30.9 0 44.1 22.4 44.1 40.9 0 24.1-18 41.1-44.1 41.1H32v-82h23.4zm67.5 0v82h-16v-82h16zM544 15v145C510.7 139.2 317.6 35.6 128 0h401c8.2 0 15 6.8 15 15zM74.1 256.4c5.7-5 8.9-12.6 8.9-20.5s-3.2-15.5-8.9-20.7c-4.9-4.4-11.6-6.4-21.9-6.4H48V263h4.2c10.3 0 16.7-1.7 21.9-6.6z"/><glyph glyph-name="cc-amex" unicode="" horiz-adv-x="576" d="M325.1 280.2c.1-8-4.3-15.7-11.7-18.7 9.5-3.3 11-9.2 11-18.4v-13.5h-16.6c-.3 14.8 3.6 25.1-14.8 25.1h-18v-25.1h-16.4v69.3l39.1-.3c13.3 0 27.4-2 27.4-18.4zm-29.4-11.3c5.7 0 11 1.3 11 7.9 0 6.4-5.6 7.4-10.7 7.4h-21v-15.3h20.7zM279 179.4c15.6 0 27.9-5.4 27.9-22.7 0-27.9-30.4-23.3-49.3-23.3l-.1-23.3h-32.2l-20.4 23-21.3-23h-65.4l.1 69.3h66.5l20.5-22.8 21 22.8H279zm-103.8-54.7l19 20.2-17.9 20.2h-41.7v-12.5h36.3v-14.1h-36.3v-13.8h40.6zm65.8-8.2V172l-25.3-27.4zm37.8 31c5.9 0 10.5 2.8 10.5 9.2 0 6.1-4.6 8.4-10.2 8.4h-21.5v-17.6h21.2zm-31.6 136.7h-38.9v-12.5h37.8v-14.1h-37.8v-13.8h38.9v-14.3h-55.5v69.3h55.5v-14.6zM576 192.6h-.2.2zm-194.6-31.9c-.1-7.6-4.2-15.3-11.9-18.4 9.2-3.3 11-9.5 11-18.4l-.1-13.8h-16.6l.1 11.5c0 11.8-3.8 13.8-14.8 13.8h-17.6l-.1-25.3h-16.6l.1 69.3h39.4c13 0 27.1-2.3 27.1-18.7zm-29.2-11.2c5.6 0 11 1.3 11 8.2 0 6.4-5.6 7.4-10.7 7.4h-21v-15.6h20.7zm-172.8 80h-16.8v54.2l-24-54.2H124l-24 54.2v-54.2H66.2l-6.4 15.3H25.3l-6.4-15.3H1l29.7 69.3h24.5l28.1-65.7v65.7h27.1l21.7-47 19.7 47h27.6v-69.3zM31.2 259.2h22.7l-11.5 27.6zm477.4-158.9c34.8 0 54.8-2.2 67.5 6.1V16c0-26.5-21.5-48-48-48H48C21.5-32 0-10.5 0 16v203.7h26.6c4.2 10.1 2.2 5.3 6.4 15.3h19.2c4.2-10 2.2-5.2 6.4-15.3h52.9v11.4c2.2-5 1.1-2.5 5.1-11.4h29.5c2.4 5.5 2.6 5.8 5.1 11.4v-11.4h135.5v25.1c6.4 0 8 .1 9.8-.2 0 0-.2-10.9.1-24.8h66.5v8.9c7.4-5.9 17.4-8.9 29.7-8.9h26.8c4.2 10.1 2.2 5.3 6.4 15.3h19c6.5-15 .2-.5 6.6-15.3h52.8v21.9c11.8-19.7 7.8-12.9 13.2-21.9h41.6v92h-39.9v-18.4c-12.2 20.2-6.3 10.4-11.2 18.4h-43.3v-20.6c-6.2 14.6-4.6 10.8-8.8 20.6h-32.4c-.4 0-2.3-.2-2.3.3h-27.6c-12.8 0-23.1-3.2-30.7-9.3v9.3h-39.9v-5.3c-10.8 6.1-20.7 5.1-64.4 5.3-.1 0-11.6.1-11.6 0h-103c-2.5-6.1-6.8-16.4-12.6-30-2.8 6-11 23.8-13.9 30h-46V291c-7.4 17.4-4.7 11-9 21.1H22.9c-3.4-7.9-13.7-32-23.1-53.9V368c0 26.5 21.5 48 48 48h480c26.5 0 48-21.5 48-48V192.6c-37.7.2-44 .9-54.3-5v5c-45.3 0-53.5 1.7-64.9-5.199v5.2h-78.2v-5.1c-11.4 6.5-21.4 5.1-75.7 5.1V187c-6.3 3.7-14.5 5.6-24.3 5.6h-58c-3.5-3.8-12.5-13.7-15.7-17.2-12.7 14.1-10.5 11.6-15.5 17.2h-83.1v-92.3h82c3.3 3.5 12.9 13.9 16.1 17.4 12.7-14.3 10.3-11.7 15.4-17.4h48.9c0 14.7.1 8.3.1 23 11.5-.2 24.3.2 34.3 6.2 0-13.9-.1-17.1-.1-29.2h39.6c0 18.5.1 7.4.1 25.3 6.2 0 7.7 0 9.4-.1.1-1.3 0 0 0-25.2 152.8 0 145.9-1.1 156.7 4.5v-4.5zm36.3 64.5c-4.6 0-9.2-.7-9.2-6.5 0-12.2 28.8.3 39.3-13.5V119c-4.9-7.1-14.1-8.9-22.5-8.9h-32l.1 14.8h32c4.1 0 8.4 1.3 8.4 6.4 0 14.6-42.7-5.6-42.7 27.4 0 14.1 11 20.7 23.8 20.7H575v-14.6h-30.1zm-57-39.8c4.1 0 8.7 1 8.8 6.4 0 14.9-42.7-5.6-42.7 27.4 0 14.1 10.7 20.7 23.5 20.7h33.2v-14.6h-30.4c-4.3 0-9.2-.8-9.2-6.4 0-15.1 42.9 6.9 42.9-26.3 0-16.4-11.4-22-26.2-22h-32.2l.1 14.8h32.2zm-42.2 40.1h-38.5v-12.5H445v-14.1h-37.9v-13.8l38.6-.3-.1-14.3h-55.2l.1 69.3h55.2v-14.3zm-56.3 108.1c.3.3 1.7 1 7.3 1 1 0 2-.1 3.1-.1l-7.3-16.9c-2.3 0-3.2.4-3.4.5-.2.2-1.1 1.9-1.1 7.9 0 5.4 1.1 7.4 1.4 7.6zm20.4 10.5h-.1.1zm-16.2 15.2h16.1v-15.2c-17.4.3-33.1 4.1-33.1-19.7 0-11.8 2.8-19.9 16.1-19.9h7.4l23.5 54.5h24.8l27.9-65.4v65.4h25.3l29.1-48.1v48.1h16.9v-69H524l-31.2 51.9v-51.9h-33.7l-6.6 15.3h-34.3l-6.4-15.3h-19.2c-22.8 0-33 11.8-33 34 0 23.3 10.5 35.3 34 35.3zm42.1-12.1l-11.6-27.6h22.8zm-101.1 12h16.9v-69.3h-16.9v69.3z"/><glyph glyph-name="cc-paypal" unicode="" horiz-adv-x="576" d="M186.3 189.8c0-12.2-9.7-21.5-22-21.5-9.2 0-16 5.2-16 15 0 12.2 9.5 22 21.7 22 9.3 0 16.3-5.7 16.3-15.5zM80.5 238.3c11.3 0 19.8-1.5 17.5-14.9-2-12.7-10.5-14.2-21.5-14.2l-8.2-.3 4.3 26.7c.2 1.7 1.7 2.7 3.2 2.7h4.7zm284 0c8.5 0 18-.5 18.1-11.1 0-15-9-18-22-18l-8-.3 4.2 26.7c.2 1.7 1.4 2.7 3.2 2.7h4.5zM576 368V16c0-26.5-21.5-48-48-48H48C21.5-32 0-10.5 0 16v352c0 26.5 21.5 48 48 48h480c26.5 0 48-21.5 48-48zM128.3 232.6c0 21-16.2 28-34.7 28h-40c-2.5 0-5-2-5.2-4.7L32 153.8c-.3-2 1.2-4 3.2-4h19c2.7 0 5.2 2.9 5.5 5.7l4.5 26.6c1 7.2 13.2 4.7 18 4.7 28.6 0 46.1 17 46.1 45.8zm84.2-8.8h-19c-3.8 0-4-5.5-4.2-8.2-5.8 8.5-14.2 10-23.7 10-24.5 0-43.2-21.5-43.2-45.2 0-19.5 12.2-32.2 31.7-32.2 9 0 20.2 4.9 26.5 11.9-.5-1.5-1-4.7-1-6.2 0-2.3 1-4 3.2-4H200c2.7 0 5 2.9 5.5 5.7l10.2 64.3c.3 1.9-1.2 3.9-3.2 3.9zm40.5-97.9l63.7 92.6c.5.5.5 1 .5 1.7 0 1.7-1.5 3.5-3.2 3.5h-19.2c-1.7 0-3.5-1-4.5-2.5l-26.5-39-11 37.5c-.8 2.2-3 4-5.5 4h-18.7c-1.7 0-3.2-1.8-3.2-3.5 0-1.2 19.5-56.8 21.2-62.1-2.7-3.8-20.5-28.6-20.5-31.6 0-1.8 1.5-3.2 3.2-3.2h19.2c1.8.1 3.5 1.1 4.5 2.6zm159.3 106.7c0 21-16.2 28-34.7 28h-39.7c-2.7 0-5.2-2-5.5-4.7l-16.2-102c-.2-2 1.3-4 3.2-4h20.5c2 0 3.5 1.5 4 3.2l4.5 29c1 7.2 13.2 4.7 18 4.7 28.4 0 45.9 17 45.9 45.8zm84.2-8.8h-19c-3.8 0-4-5.5-4.3-8.2-5.5 8.5-14 10-23.7 10-24.5 0-43.2-21.5-43.2-45.2 0-19.5 12.2-32.2 31.7-32.2 9.3 0 20.5 4.9 26.5 11.9-.3-1.5-1-4.7-1-6.2 0-2.3 1-4 3.2-4H484c2.7 0 5 2.9 5.5 5.7l10.2 64.3c.3 1.9-1.2 3.9-3.2 3.9zm47.5 33.3c0 2-1.5 3.5-3.2 3.5h-18.5c-1.5 0-3-1.2-3.2-2.7l-16.2-104-.3-.5c0-1.8 1.5-3.5 3.5-3.5h16.5c2.5 0 5 2.9 5.2 5.7L544 256.8v.3zm-90-51.8c9.3 0 16.3-5.7 16.2-15.5 0-12.3-9.7-21.5-21.7-21.5-9.2 0-16.2 5.3-16.2 15 0 12.3 9.5 22 21.7 22z"/><glyph glyph-name="cc-stripe" unicode="" horiz-adv-x="576" d="M492.4 227.2c8.7 0 18-6.7 18-22.7h-36.7c0 16 9.8 22.7 18.7 22.7zM375 224.6c12.9.1 21.9-14.5 21.9-33.1 0-19.1-8.8-33.4-21.9-33.4-8.3 0-13.3 3-16.8 6.7l-.2 52.8c3.7 4.1 8.8 7 17 7zM528 416c26.5 0 48-21.5 48-48V16c0-26.5-21.5-48-48-48H48C21.5-32 0-10.5 0 16v352c0 26.5 21.5 48 48 48h480zM122.2 166.9c0 42.3-54.3 34.7-54.3 50.7 0 5.5 4.6 7.7 12.1 7.7 10.8 0 24.5-3.3 35.3-9.1v33.4c-11.8 4.7-23.5 6.5-35.3 6.5-28.8 0-48-15-48-40.2 0-39.3 54-32.9 54-49.9 0-6.6-5.7-8.7-13.6-8.7-11.8 0-26.9 4.9-38.9 11.3v-33.9c13.2-5.7 26.6-8.1 38.8-8.1 29.6.2 49.9 14.7 49.9 40.3zm68.8 56.6v30.3h-26.9v30.8l-34.7-7.4-.2-113.9c0-21 15.8-36.5 36.9-36.5 11.6 0 20.2 2.1 24.9 4.7v28.9c-4.5-1.8-27-8.3-27 12.6v50.5h27zm74-2.4v32.7h-.1c-4.7 1.7-21.3 4.8-29.6-10.5l-2.2 10.5h-30.7V129.3h35.5v84.4c8.4 11 22.6 8.9 27.1 7.4zm44.1-91.8v124.5h-35.7V129.3h35.7zm0 142.9v28.9l-35.7-7.6v-28.9zm74.1-145.5c25.4.1 48.6 20.5 48.6 65.6 0 41.3-23.5 63.8-48.4 63.8-13.9 0-22.9-6.6-27.8-11.1l-1.8 8.8h-31.3V88l35.5 7.5.1 40.2c5.1-3.7 12.7-9 25.1-9zm160.4 51.5c.1 2 .4 9.4.4 12.9 0 36.4-17.6 65.1-51.3 65.1-33.8 0-54.3-28.7-54.3-64.9 0-42.8 24.2-64.5 58.8-64.5 17 0 29.7 3.9 39.4 9.2v28.6c-9.7-4.9-20.8-7.9-34.9-7.9-13.8 0-26 4.9-27.6 21.5h69.5z"/><glyph glyph-name="lastfm" unicode="" horiz-adv-x="512" d="M225.8 80.9s-31.7-31.1-97.9-31.1C45.7 49.8 0 97.9 0 187c0 92.7 45.7 147.2 131.8 147.2 117.7 0 129.3-66.2 161.3-163 14-42.8 38.7-73.9 97.901-73.9 39.9 0 61 8.8 61 30.5 0 31.9-34.9 35.1-79.8 45.7-48.6 11.7-68 36.9-68 76.8 0 64 51.6 83.9 104.4 83.9 59.8 0 96.2-21.7 100.9-74.5l-58.6-7c-2.301 25.2-17.5 35.8-45.7 35.8-25.8 0-41.601-11.8-41.601-31.7 0-17.6 7.6-28.1 33.4-34 52.3-11.5 115-19.2 115-92.1 0-58.6-49.3-80.9-122-80.9-101.4 0-136.6 45.7-155.4 102.6-26.1 81.6-34.4 134.9-100.899 134.9-35.7 0-72.1-25.8-72.1-97.9 0-56.3 28.7-91.5 69.2-91.5 45.7 0 76.2 34 76.2 34z"/><glyph glyph-name="lastfm-square" unicode="" d="M400 416c26.5 0 48-21.5 48-48V16c0-26.5-21.5-48-48-48H48C21.5-32 0-10.5 0 16v352c0 26.5 21.5 48 48 48h352zm-92.2-312.9c45.4 0 76.2 13.9 76.1 50.6 0 45.5-39.1 50.4-71.8 57.5-16.1 3.7-20.9 10.3-20.9 21.3 0 12.5 9.9 19.8 26 19.8 17.6 0 27.1-6.6 28.6-22.4l36.7 4.4c-2.9 33-25.6 46.6-63 46.6-32.9 0-65.2-12.4-65.2-52.4 0-24.9 12.1-40.7 42.5-48 28.1-6.6 49.9-8.7 49.9-28.6 0-13.6-13.2-19.1-38.1-19.1-37 0-52.4 19.4-61.2 46.2-20 60.5-27.3 101.9-100.8 101.9-53.9 0-82.5-34.1-82.5-92 0-55.7 28.6-85.8 79.9-85.8 41.4 0 61.2 19.4 61.2 19.4l-11.7 31.9s-19-21.3-47.6-21.3c-25.3 0-43.3 22-43.3 57.2 0 45.1 22.7 61.2 45.1 61.2 41.5 0 46.7-33.3 63-84.3 11.7-35.5 33.7-64.1 97.1-64.1z"/><glyph glyph-name="ioxhost" unicode="" horiz-adv-x="640" d="M616 288c13.3 0 24-10.7 24-24 0-13.2-10.7-24-24-24h-52.7c3.1-15.5 4.7-31.6 4.7-48C568 55 457-56 320-56 217.1-56 128.8 6.7 91.3 96H24c-13.3 0-24 10.7-24 24 0 13.2 10.7 24 24 24h52.7c-3.1 15.5-4.7 31.6-4.7 48 0 137 111 248 248 248 102.9 0 191.2-62.7 228.7-152H616zm-96-96c0 16.6-2 32.6-5.8 48H216c-13.3 0-24 10.7-24 24 0 13.2 10.7 24 24 24h279.5c-33.9 62-99.8 104-175.5 104-110.5 0-200-89.5-200-200 0-16.6 2-32.6 5.8-48H424c13.3 0 24-10.7 24-24 0-13.2-10.7-24-24-24H144.5C178.4 34 244.3-8 320-8c110.5 0 200 89.5 200 200zm-304 24h208c13.3 0 24-10.7 24-24 0-13.2-10.7-24-24-24H216c-13.3 0-24 10.7-24 24 0 13.2 10.7 24 24 24z"/><glyph glyph-name="angellist" unicode="" d="M347.1 232.6c48-11.7 54.9-50.6 54.9-93.7C402 24.6 328.6-64 210.6-64 114.401-64 46 12.402 46.1 84.6c0 37.101 14.2 61.701 51.101 71.701-3.1 8.3-8 20.8-8 29.7 0 23.5 24.9 52.6 48.3 52.6 6.9 0 13.7-2 20-4.3-12.4 35.2-46.6 126.7-46.6 162 0 28.8 14.6 51.7 45.7 51.7 40 0 85.4-144 95.1-172.5 12.5 31.4 52.5 163.1 97.1 163.1 28 0 43.7-22.3 43.7-48.9 0-30.2-33.7-124.5-45.4-157.1zM311.7 340l-33.1-93.7 34-6c8.5 23.4 47.1 128.9 47.1 148 0 7.1-2.3 16-10.9 16-16 0-33.1-52-37.1-64.3zm-169.4 59.7c0-29.1 34.6-120 45.5-148.8 7.7 4.4 19.8 2.7 35.4 1.4l-34.6 100.3c-31.8 92.8-46.3 59-46.3 47.1zM140 204c-7.7 0-20.3-13.4-20.4-21.1 0-20.8 56-97.7 76.9-97.7 5.7 0 10.6 6.3 10.6 11.4 0 12.8-37.8 107.4-67.1 107.4zM324.3 17.7c55.3 61.5 49.1 158.6 31 174.7-24 21.1-106 29.1-138.3 29.1-17.3 0-17.4-6.4-17.4-13.1 0-43.7 92.9-39.7 120.6-39.7 11.2 0 15.8-9.9 16.9-21.1-7.4-7.4-17.7-11.7-27.4-15.4-9.4-3.4-19.1-7.1-27.1-13.1-22-16-43.7-43.4-43.7-71.7 0-17.7 10.6-32.9 10.6-50.3 0-.3-2-6.5-2-7.4-32.6 2.3-40.6 34.6-41.7 61.7-3.4-.9-8-.6-11.7-.6 5.1-17.8-11.9-42-38-42-37.8 0-88 57.2-58.3 86.9 28.7-35.9 35-51.4 51.1-51.4 4 0 11.7 3.4 11.7 8.3 0 12.8-42.9 73.1-54.3 73.1-16.8 0-37.7-24.9-20.6-68.3 22.6-55.7 69.5-88.3 128.9-88.3 43.4 0 80.6 16.6 109.7 48.6zm-98.6 126c3.2-8.3 6.6-16.6 9.4-25.1 6.3 7.1 12.9 13.7 20.3 19.1-10 2-20 2.9-29.7 6z"/><glyph glyph-name="buysellads" unicode="" d="M224 297.3l42.9-160.7h-85.8zM448 368V16c0-26.5-21.5-48-48-48H48C21.5-32 0-10.5 0 16v352c0 26.5 21.5 48 48 48h352c26.5 0 48-21.5 48-48zM382.7 42.7l-94.5 298.7H159.8L65.3 42.7H156l111.7 91.6 24.2-91.6h90.8z"/><glyph glyph-name="connectdevelop" unicode="" horiz-adv-x="576" d="M550.5 207c6.696-1.339 11.786-7.5 11.788-14.732 0-7.5-5.358-13.66-12.322-15L495.055 81.91c.536-1.607.804-3.214.804-4.821 0-7.232-5.09-13.393-12.054-14.731l-51.697-90.27c.536-1.338.803-2.677.803-4.284 0-8.304-6.697-15.268-15.268-15.268-4.286 0-8.304 1.875-10.982 4.821H299.517C296.838-45.857 292.552-48 288-48s-8.84 2.143-11.517 5.356H169.608C166.928-45.858 162.91-48 158.089-48c-8.303 0-15.267 6.697-15.267 15.268 0 1.875.535 3.75 1.07 5.357L92.196 62.356c-6.965 1.34-12.055 7.5-12.055 14.732 0 1.875.269 3.214.805 4.821l-55.18 95.358c-6.965 1.607-12.054 7.768-12.054 15 0 7.5 5.359 13.66 12.59 15l53.305 92.143c0 .536-.269 1.072-.269 1.607 0 6.16 3.751 11.25 9.108 13.66l55.982 97.234c-.536 1.339-1.071 3.214-1.071 4.821 0 8.572 6.965 15.268 15.267 15.268 4.823 0 8.84-2.143 11.786-5.625h106.071c2.68 3.482 6.697 5.625 11.518 5.625s8.839-2.143 11.518-5.624h106.606c2.947 3.482 6.965 5.625 11.786 5.625 8.304 0 15.267-6.697 15.267-15.268 0-1.607-.535-3.214-1.07-4.82l55.446-95.895c8.037-.267 14.733-6.964 14.733-15 0-2.68-.804-5.09-1.875-7.232zM153.535-2.732V73.07h-43.66zm0 83.84v50.623l-44.999-47.41c.535-1.072 1.071-2.143 1.339-3.214h43.66zm0 62.41l.001 92.946-50.089 51.965c-2.411-1.606-5.089-2.411-7.768-2.679l-51.965-90c.268-1.072.268-2.142.268-3.482 0-1.339 0-2.679-.535-4.018L99.16 91.822c1.339-.268 2.679-1.072 4.018-1.608zm0 102.322v72.053l-43.928-15.804c0-.268.268-.804.268-1.072 0-2.946-.804-5.624-2.143-7.767zm0 80.625v59.732l-43.66-75.536zm326.519-39.108l-.268.268-98.036-101.518 63.75-67.233 35.359 167.143zM291.75 92.893L280.5 81.107h22.768zm-.268 11.25l79.285 82.232-83.035 87.59-79.554-84.376zm5.357-5.893l16.875-17.143h124.02l5.892 28.125-67.5 71.25zm113.572 305.357L293.358 279.588l83.034-87.589 97.5 101.25c-1.34 2.143-2.142 4.821-2.142 7.767v.536l-57.858 100.714c-1.34.268-2.41.805-3.481 1.34zm-9.107 2.143h-4.287l-166.34-60 57.056-60.268zm-123.483 0H173.892l50.894-53.571 148.393 53.571h-75c-2.68-2.678-6.16-4.285-10.18-4.285s-7.5 1.607-10.178 4.285zm-116.249-5.625V329.41l54.911 19.822-51.161 53.84c-.73-.254-1.93-.614-2.68-.805zm0-79.286v-83.304l40.981-42.052 79.554 84.106-59.732 63.214zm0-92.678v-76.072L198 190.392zm0-87.858V81.108H269.25l17.143 17.677-82.768 85.982zm6.964-162.053h1.339l91.607 94.821h-99.91V-16.66l1.07-1.607c2.412-.804 4.287-1.875 5.894-3.482zm129.911 0h104.194l-91.606 94.821H272.73L181.124-21.75h96.428c2.68 2.41 6.429 4.285 10.448 4.285s7.767-1.875 10.447-4.285zm120 11.786l17.412 83.036H321.483l89.195-91.875c1.073.536 2.144 1.07 3.483 1.34zm12.856 22.232l34.822 60.803h-21.964zm34.822 68.84c.268 1.07.804 2.142 1.339 2.945l-17.143 18.214-4.553-21.16h20.357zm66.161 107.41c-.269 1.34-.536 2.411-.536 3.75 0 1.607.536 2.946.803 4.285L486.75 275.84l-34.554-163.928 20.625-21.964c1.34.803 2.679 1.34 4.018 1.874z"/><glyph glyph-name="dashcube" unicode="" d="M326.6 344l102.2 104V21c0-50.5-40.1-85-91.2-85H110.4c-51.1 0-91.2 34.5-91.2 85v229.5c0 50.2 40.1 93.5 91.2 93.5h216.2zM153.9 31.5v-.1h223.8l-51.1 52.3v123.5c0 17.7-14.3 32.5-32 32.5H153.9c-17.7 0-32.4-14.8-32.4-32.5V64.3c0-17.7 14.7-32.8 32.4-32.8z"/><glyph glyph-name="forumbee" unicode="" d="M5.8 138.3C2 155.3 0 172.5 0 189.7 0 313 99.8 413 223.1 413c16.6 0 33.3-2 49.3-5.5C149 360.5 51.9 262 5.8 138.3zm392.9 189.2c-151.101-44-269.2-164.4-312.3-315.7-17.2 13.4-32.7 30.9-45.2 49 43.4 149.9 160.1 267.7 309.7 312 18.1-12.6 34.1-27.8 47.8-45.3zm15.8-252.7C427.6 39.5 438.7 1.5 448-35c-36.1 9.3-72 20.5-107 33.6-25.7-16-54.6-26.9-84.6-31.3C299 47 364.6 114.7 444 157.6c-4.1-29.1-14.3-57.7-29.5-82.8zm29.7 145.5C330.5 173.6 240 80.901 193.7-33.2c-19.6 2.7-38.5 7.6-56.6 15.2C182 120.5 290.5 231.3 428.4 277.1c7.9-18.1 13.2-37.3 15.8-56.8z"/><glyph glyph-name="leanpub" unicode="" horiz-adv-x="576" d="M386.539 336.515L401.635 87.56l-10.979.275c-36.232.825-71.64-8.783-102.657-27.997-31.015 19.214-66.424 27.997-102.657 27.997-45.563 0-82.07-10.705-123.516-27.722L93.117 318.4c28.546 11.802 61.484 18.114 92.226 18.114 41.173 0 73.836-13.175 102.657-42.544 27.723 28.272 59.013 41.722 98.539 42.544zM569.07 0c-25.526 0-47.485 5.215-70.542 15.645-34.31 15.645-69.993 24.978-107.871 24.978C351.68 40.623 315.722 27.722 288 0c-27.723 27.723-63.68 40.623-102.657 40.623-37.878 0-73.56-9.333-107.871-24.978C55.24 5.764 32.732 0 8.303 0H6.93l42.545 349.141c39.251 22.233 87.012 34.86 132.301 34.86 37.055 0 75.209-7.685 106.225-29.095C319.017 376.316 357.171 384 394.226 384c45.29 0 93.05-12.626 132.301-34.859zm-43.368 44.741l-34.036 280.246c-30.742 14-67.248 21.41-101.01 21.41-38.428 0-74.384-12.077-102.656-38.702-28.273 26.625-64.228 38.702-102.657 38.702-33.76 0-70.267-7.41-101.01-21.41L50.299 44.741c47.21 19.486 82.894 33.486 135.045 33.486 37.604 0 70.817-9.606 102.657-29.644 31.84 20.038 65.052 29.644 102.657 29.644 52.15 0 87.834-14 135.045-33.486z"/><glyph glyph-name="sellsy" unicode="" horiz-adv-x="640" d="M539.71 210.692c55.157-13.483 94.074-63.124 94.073-119.509 0-68.026-55.464-123.184-123.185-123.184H129.401C61.68-32.001 6.215 23.156 6.216 91.184c0 47.496 27.885 91.01 70.785 111.234-2.144 7.354-3.065 15.015-3.065 22.37 0 46.27 37.691 83.96 83.963 83.96 20.223 0 39.835-7.354 55.156-20.53 18.387 74.77 85.8 127.78 163.021 127.78 92.542 0 167.924-75.381 167.924-167.923 0-12.564-1.226-25.127-4.29-37.384zM199.88 46.446v110.928c0 8.274-7.047 15.322-15.321 15.322H153.61c-8.273 0-15.32-7.048-15.32-15.322V46.446c0-8.273 7.046-15.321 15.32-15.321h30.949c8.273 0 15.321 7.047 15.321 15.321zm89.477 0v131.458c0 8.273-7.049 15.32-15.322 15.32h-30.95c-8.272 0-15.32-7.046-15.32-15.32V46.446c0-8.273 7.046-15.321 15.32-15.321h30.95c8.273 0 15.322 7.047 15.322 15.321zm89.477 0V209.16c0 8.273-7.047 15.322-15.321 15.322h-30.948c-8.275 0-15.323-7.048-15.323-15.322V46.446c0-8.273 7.048-15.321 15.323-15.321h30.948c8.274 0 15.321 7.047 15.321 15.321zm87.027 0v224.612c0 8.58-7.048 15.628-15.322 15.628h-28.497c-8.275 0-15.322-7.049-15.322-15.628V46.446c0-8.273 7.047-15.321 15.322-15.321h28.497c8.274 0 15.322 7.047 15.322 15.321z"/><glyph glyph-name="shirtsinbulk" unicode="" d="M100 37.7l4.4 9.9L135 34.2l-4.4-9.9zm39.4-17.5l4.4 9.9 30.6-13.4-4.4-9.9zm172.1 14l30.6 13.4 4.4-9.9-30.6-13.4zM179.1 3l4.4 9.6L213.8-.8l-4.4-9.9zM60.4 55.2l4.4 9.9 30.6-13.7-4.4-9.6zm211.4-38.5l30.6 13.4 4.4-9.9-30.6-13.4zM232.5-.8l30.6 13.4 4.4-9.6-30.6-13.7zm118.4 52.2l30.6 13.7 4.4-9.9-30.6-13.4zM170 401.4v-10.5h-33.5v10.5H170zm-47.2 0l-.1-10.5H89.2v10.5h33.6zm-47.3 0l.1-10.5H42.3v10.5h33.2zm141.5 0v-10.5h-33.2v10.5H217zm94.5 0v-10.5H278v10.5h33.5zm47.3 0v-10.5h-33.5v10.5h33.5zm-94.6 0v-10.5H231v10.5h33.2zm141.5 0v-10.5h-33.3v10.5h33.3zM52.8 96.9V63.4H42v33.5h10.8zm70 215.9l-.1-10.5H89.2v10.5h33.6zm-70-10.6v-23H42v33.5h33.6v-10.5H52.8zM221.7 73.6c-50.2 0-91.3 40.8-91.3 91.3 0 50.2 41.1 91.3 91.3 91.3 50.5 0 91.3-41.1 91.3-91.3 0-50.5-40.8-91.3-91.3-91.3zm-48.2 111.1c0-44.3 77.6-11.9 77.6-38 0-13.1-24-14.3-32.7-14.3-12.3 0-29.8 2.7-35.9 14.9h-.9l-9-18.4c14.8-9.3 29.1-12.2 47.2-12.2 19.5 0 51 5.8 51 31.2 0 48.1-78.5 16.3-78.5 37.9 0 13.1 20.8 14.9 29.8 14.9 10.8 0 29.2-3.2 35.6-13.1h.9l8.8 16.9c-15.1 6.2-27.4 12-44.3 12-20.1 0-49.6-6.4-49.6-31.8zM52.8 269.6V236H42v33.6h10.8zM395.2 63.4v33.5H406V63.4h-10.8zM52.8 140.1v-33.5H42v33.5h10.8zM0 444.3h448v-406L221.7-60.3 0 38.3v406zM418.8 57.2h.1v270.1H29.2V57.2L222-28.5zm0 299.3h.1v58.6H29.2v-58.6h389.6zm-366-130.1v-33.5H42v33.5h10.8zm0-43.2v-33.5H42v33.5h10.8zM170 312.8v-10.5h-33.5v10.5H170zm225.2-163.1v33.5H406v-33.5h-10.8zm0 43.2v33.5H406v-33.5h-10.8zM217 312.8v-10.5h-33.2v10.5H217zM395.2 236v33.5H406V236h-10.8zm0-129.5V140H406v-33.5h-10.8zm-131 206.3v-10.5H231v10.5h33.2zm47.3 0v-10.5H278v10.5h33.5zm83.7-33.6l.1 23h-22.8v10.5H406v-33.5h-10.8zm-36.4 33.6v-10.5h-33.5v10.5h33.5z"/><glyph glyph-name="simplybuilt" unicode="" horiz-adv-x="512" d="M481.2 384c14.7 0 26.5-11.8 26.7-26.3V26.3c0-14.5-11.8-26.3-26.6-26.3H30.9C16.1 0 4.3 11.8 4.3 26.3v331.4c0 14.5 11.8 26.3 26.4 26.3h106c14.6 0 26.6-11.8 26.6-26.3v-39.6h185.3v39.6c0 14.5 12.1 26.3 26.6 26.3h106zM149.8 92.2c36.9 0 66.6 29.7 66.6 66.4 0 36.9-29.7 66.6-66.6 66.6-36.7 0-66.4-29.7-66.4-66.6 0-36.7 29.8-66.4 66.4-66.4zm212.4 0c36.6 0 66.4 29.7 66.4 66.6 0 36.7-29.8 66.4-66.4 66.4-36.9 0-66.6-29.8-66.6-66.4 0-36.9 29.7-66.6 66.6-66.6z"/><glyph glyph-name="skyatlas" unicode="" horiz-adv-x="640" d="M640 118.7C640 52.8 587.5 4.3 522.5 4.3 356.6 4.3 325.9 254 162.8 254 15.901 254 15.7 41.8 168.4 41.8c42.5 0 90.9 17.8 125.3 42.5 5.6 4.1 16.9 16.3 22.8 16.3s10.9-5 10.9-10.9c0-7.8-13.1-19.1-18.7-24.1C267.8 30 208.4 4.4 154 4.4 70.6 4.3 0 63.4 0 149.3s67.5 149.1 152.8 149.1c185.3 0 222.5-245.9 361.9-245.9 99.9 0 94.8 139.7 3.4 139.7-17.5 0-35-11.6-46.9-11.6-8.4 0-15.9 7.2-15.9 15.6 0 11.6 5.3 23.7 5.3 36.3 0 66.6-50.9 114.7-116.899 114.7-53.1 0-80-36.9-88.8-36.9-6.2 0-11.2 5-11.2 11.2 0 5.6 4.1 10.3 7.8 14.4 25.3 28.8 64.7 43.7 102.8 43.7 79.4 0 139.1-58.4 139.1-137.8 0-6.9-.3-13.7-1.2-20.6 11.9 3.1 24.1 4.7 35.9 4.7 60.7 0 111.9-45.3 111.9-107.2z"/><glyph glyph-name="pinterest-p" unicode="" horiz-adv-x="384" d="M204 441.5c94.2 0 180-64.8 180-164.1 0-93.3-47.7-196.801-153.9-196.801-25.2 0-57 12.6-69.3 36-22.8-90.3-21-103.8-71.4-172.8-5.2-1.9-3.5-2.3-6.9 1.5-1.8 18.9-4.5 37.5-4.5 56.4 0 61.2 28.2 149.7 42 209.1-7.5 15.3-9.6 33.9-9.6 50.7 0 80 93.9 92 93.9 25.8 0-39-26.4-75.6-26.4-113.399 0-25.8 21.3-43.8 46.2-43.8 69 0 90.3 99.6 90.3 152.7 0 71.1-50.4 109.8-118.5 109.8-79.2 0-140.4-57-140.4-137.4 0-38.7 23.701-58.5 23.701-67.8 0-7.8-5.7-35.4-15.6-35.4C39.6 152 0 192 0 262.4c0 110.7 101.4 179.1 204 179.1z"/><glyph glyph-name="whatsapp" unicode="" d="M380.9 350.9c41.9-42 67.1-97.7 67.1-157 0-122.4-101.8-222-224.1-222h-.101c-37.2 0-73.7 9.3-106.1 27L-.001-32l31.5 115c-19.4 33.7-29.6 71.9-29.6 111 0 122.4 99.6 222 222 222 59.3 0 115.1-23.1 157-65.1zM223.9 9.3c101.699 0 186.6 82.8 186.6 184.6.1 49.3-21.3 95.6-56.1 130.5-34.8 34.9-81.1 54.1-130.4 54.1-101.8 0-184.6-82.8-184.6-184.5 0-34.9 9.7-68.8 28.2-98.2l4.4-7-18.6-68.1L123.2 39l6.7-4c28.3-16.8 60.8-25.7 94-25.7zm101.2 138.2c5.5-2.7 9.2-4.1 10.5-6.6 1.4-2.3 1.4-13.4-3.2-26.4-4.6-13-26.7-24.8-37.4-26.4-17.6-2.6-31.4-1.3-66.6 13.9-55.7 24.1-92 80.1-94.8 83.8-2.7 3.7-22.6 30.1-22.6 57.4s14.3 40.7 19.4 46.3c5.1 5.5 11.1 6.9 14.8 6.9s7.4 0 10.6-.2c3.4-.2 8 1.3 12.5-9.5 4.6-11.1 15.7-38.4 17.1-41.2 1.4-2.8 2.3-6 .5-9.7-10.6-21.2-22-20.5-16.3-30.3 21.5-36.9 42.9-49.7 75.5-66 5.5-2.8 8.8-2.3 12 1.4 3.3 3.8 13.9 16.2 17.6 21.8 3.7 5.6 7.4 4.7 12.5 2.8 5.1-1.8 32.4-15.2 37.9-18z"/><glyph glyph-name="viacoin" unicode="" horiz-adv-x="384" d="M384 416l-48-112h48v-48h-68.5l-13.8-32H384v-48H281.2L192-32l-89.2 208H0v48h82.3l-13.8 32H0v48h48L0 416h64l80.8-192h94.5L320 416h64zM192 112l27 64h-54z"/><glyph glyph-name="medium" unicode="" d="M0 416h448V-32H0v448zm372.2-106.1v5H289L229.7 167l-67.4 148H75v-5.1l28.1-33.9c2.8-2.5 4.2-6.1 3.8-9.8v-133c.8-4.8-.7-9.7-4.1-13.2L71.2 81.7v-5.1H161v5.1L129.4 120c-3.4 3.5-5.1 8.4-4.4 13.2v115l78.7-171.6h9.1l67.6 171.6V111.3c0-3.6 0-4.3-2.4-6.7L253.7 81v-4.9h118v5.1l-23.5 23c-2.1 1.5-3.1 4.1-2.7 6.7v169.3c-.4 2.5.6 5.1 2.7 6.701z"/><glyph glyph-name="y-combinator" unicode="" d="M448 416V-32H0v448h448zM236 160.5L313.5 306h-32.7L235 215c-4.7-9.3-9-18.3-12.8-26.8L210 215l-45.2 91h-35l76.7-143.8V67.7H236v92.8z"/><glyph glyph-name="optin-monster" unicode="" horiz-adv-x="576" d="M572.6 26.6c1-3.5 1.9-7 1.7-10.7.8-31.6-44.3-64-73.5-65.1-17.3-.8-34.6 8.4-42.7 23.5-113.5-4.1-227-4.9-340.199 0-8.4-15.1-25.7-24-43-23.5-28.9 1.1-74 33.5-73.5 65.1.3 3.8.8 7.3 1.9 10.8-5.6 9.4-4.8 15.3 5.4 11.6 3.3 5.2 7 9.5 11.1 13.8-2.5 10.9 1.3 14.1 11.1 9.2 4.5 3.3 10 6.5 15.9 9.2 0 15.8 11.8 11.2 17.3 5.7 12.5 1.8 20.2-.7 26.8-5.7v19.7c-12.9 0-40.6 11.4-45.9 36.2-5 20.8 2.6 38.1 25.1 47.6.8 5.9 8.1 14 14.9 15.9 7.6 1.9 12.5-4.6 14.1-10.3 7.4 0 17.8-1.5 21.1-8.1 5.4.5 11.1 1.4 16.5 1.9-2.4 1.9-5.1 3.5-8.1 4.6-5.1 8.9-13.8 11.1-24.6 11.6 0 .8 0 1.6.3 2.7-19.8.5-44.1 5.6-54.9 17.8-21.3 23.6-15.9 83.6 12.2 103.5 8.4 5.7 21.6.8 22.7-9.7 2.4-20.6.4-26.8 26.2-25.9 8.1 7.8 16.8 14.6 26.5 20-14.9 1.3-28.9-1.6-43.8-3.8 12.7 12.5 23.9 25.4 56.7 42.4 23.5 11.9 50 20.8 76.2 23.2-18.6 7.9-40 11.9-59.7 16.5 76.5 16.2 174.6 22.1 244.199-37.6 18.1-15.4 32.4-36.2 42.7-60 39.8-4.9 36.4 5.5 38.6 25.1 1.1 10.3 14.3 15.4 22.7 9.5 14.9-10.5 22.2-30.8 24.6-48.1 2.2-17.8.3-41.3-12.4-55.1-10.8-12.2-34.3-17.6-53.8-18.1v-2.8c-11.1-.2-20.3-2.4-25.7-11.6-3-1.1-5.7-2.7-8.4-4.6 5.7-.5 11.4-1.4 16.8-1.9 1.9 5.6 12.6 8.4 21.1 8.4 1.7 5.4 6.8 11.9 14.1 10.3 7.3-1.6 14.1-10 14.9-15.9 10.8-4.4 22.1-12.2 25.1-25.7 1.9-8.1 1.7-15.1.3-21.9-5.7-25.2-33.3-36.2-45.9-36.2 0-6.7 0-13.2-.3-19.7 8.1 6 16.4 7.2 26.8 5.7 6 5.9 17.6 9.4 17.6-5.7 5.6-2.7 11.3-6 15.9-9.2 10.1 5 13.7.5 10.8-9.2 4.1-4.3 8.1-8.9 11.1-13.8 10.1 3.6 11-2.1 5.4-11.6zm-73.8 254c17.3-6.7 26.2-22.1 30.3-35.7 1.1 10.6-2.7 39.5-13.8 51.1-7.3 7.3-14.1 5.1-14.1-.8 0-6.2-1.3-11.6-2.4-14.6zm-4.6-6.7c-3.2-3.3-9.2-4.9-14.1-5.7 13-15.7 17-41.7 12.7-63 10.8 2.2 20.5 6.3 26.2 12.2 1.9 2.2 3.8 4.9 4.9 7.6-1.1 21.3-10.2 42.7-29.7 48.9zm-24.1-6.8c-3.7 0-8.1 0-11.8.3 7.5-20.6 12.4-42.7 14.3-64.6 3.5 0 7.5.3 11.6.8 5.9 24.3-.3 51.6-14.1 63.5zM47.5 245c4.1 13.5 13 28.9 30.3 35.7-1 3-2.4 8.4-2.4 14.6 0 5.9-7.1 8.1-14.1.8-11.4-11.6-14.9-40.6-13.8-51.1zm9.7-27.6c5.7-6.2 15.4-10 26.2-12.2-4.3 21.4-.3 47.3 12.7 63-4.9.8-10.9 2.5-14.1 5.7-19.4-6.2-28.3-27.6-29.7-48.9 1.4-2.7 3-5.4 4.9-7.6zm47.9-14.6c2.4 22.2 9.1 43.8 19.8 63.5-5.2-1.1-10-3-14.9-4.9l-12.2-5.1v.3c-7.3-14.1-10-34.4-5.4-53 4.6-.5 8.6-.8 12.7-.8zm184 162.7c-41.9 0-76.2-34.1-76.2-75.9 0-42.2 34.3-76.2 76.2-76.2 41.9 0 76.2 34 76.2 76.2 0 41.9-34.3 75.9-76.2 75.9zm115.6-174.3c-12.9.8-26.2.8-39.5 1.1 10-50.6 3.3-64.7 16.5-58.1 16 8.1 22.7 39.2 23 57zm-54 1.6c-18.9.3-38.1.3-57 0v.3c-.3-5.2.2-38.1 4.3-41.1 11.1-5.4 39.5-4.6 51.1-1.1 5.4 1.6 2.4 37 1.6 41.9zM278.3 139c4.6 2.5 2.4 45.4 1.3 53.7v.3c-19.4-.3-38.6-.3-57.8-.8-1.9-9.2-4.6-48.9 1.9-51.6 13-5.7 41.6-5.1 54.6-1.6zm-106.5 51.1c-5.4-19.7.3-45.1 22.2-54.9 5.4-2.5 8.6-2.5 9.7 4.3 1.9 8.7 2.5 36.8 4.9 52.2-12.2-.2-24.6-.8-36.8-1.6zm-35.4-31.3c2.4-3.7 1.6-9.1-8-12.5 43.8-47 92.7-85.7 155.899-106.5 67.5 19.2 115.601 60 163.2 107-11.1 4.3-7.7 10.3-7.3 11.6-8.9.8-17.9 1.9-26.5 2.7-9.5-33-36-52.9-46.8-31.6-2.7 5.2-3.5 11.7-4.6 16.8-3.8-8.4-13.3-8.1-24.6-8.9-13.2-1.1-31.6-1.3-44 3-3-12.9-11.1-12.9-26.8-14.3-14.1-1.4-48.7-4.1-54.9 10.8-1.1-28.7-35.1-10-45.1 7-3.2 5.7-5.4 11.4-7 17.6-7.8-.8-15.7-1.6-23.5-2.7zM114.8-13.7c.5 2.5.8 5.2.8 8.2-5.7 23.2-18.6 49.7-33.5 54C59.7 55.2 13.2 25 15.9-6.1c12.7-19.5 40-35.7 59.2-36.5 17.8-.8 35.9 11.1 39.7 28.9zm-8.7 66c9-16 15.5-33.3 16.7-51.9 33.5 19.4 69.1 35.7 105.9 47-38.7 20.5-68.1 47.8-97.3 77-2.1-1.3-5.1-2.4-7.8-3.5-1.6-4.9 8.7-5.3 5.4-12.4-2.1-4.1-8.6-7.6-15.1-9.2-2.1-2.7-5.1-4.9-7.8-6.5h-.3c-.2-13.5-.2-27 .3-40.5zm337.6-64.6C406.9 9 369.6 29 328.099 40.7c-13.8-6.2-27.9-11.3-42.2-15.4-2.1-.8-2.1-.8-4.3 0-11.9 3.7-23.3 8.1-34.9 13.2-40.2-11.6-77.3-29.2-112.4-50.8h-.3v-.3c.3 0 .3 0 .3.3 103.2-4.1 206.4-3.5 309.4 0zM454.2.1c1 14.7 7.2 35.8 16.5 51.7l-.3-.3c.5 13.7.8 27.5.8 41.3-3 1.7-5.7 4.1-8.1 6.8-6.5 1.3-12.9 5.1-15.1 8.9-1.9 4.1 1.3 7.6 5.9 10.3-.2.5-.5 1.6-.5 2.4-3 .8-5.4 1.8-7.6 3.2-31.6-29.4-65.4-56.7-103.5-76.7C381.2 36 418.3 19.6 454.2.1zm105.9-6.2c3 31.1-43.5 61.4-66.2 54.5-14.6-4.3-27.8-30.8-33.5-54 0-23.8 21.2-37.9 40.5-37 19.2.8 46.5 17 59.2 36.5zM372.9 372.8c-35.7 39.2-81.4 47.8-126 23.5 25.2 56.2 122.199 48.6 126-23.5zM74.8 40.9c14.9 1.9 24.6-19.2 18.6-30.8C88.6.4 69.7-14 57.5-17.2 41-21.8 25.3-13.9 25.3-2.3c0 17.8 33.8 41.6 49.5 43.2zm215.9 176.2c-30.9 0-57.6 25.7-50.3 59.8 13.2-20.7 46.5-12 46.5 11.3 0 10-7 18.6-16.5 21.6 31.7 13.8 72.2-8.2 72.2-44.3 0-26.8-23.3-48.4-51.9-48.4zM68-26.1C67.5-17.7 88.3-2.6 97.2-1c8.6 1.6 12.7-11.4 9.7-18.4-2.7-5.7-10.5-13.5-17.3-16.2-9.4-3.2-21.1 3-21.6 9.5zm433.2 67c15.7-1.6 49.5-25.4 49.5-43.2 0-11.7-15.7-19.5-32.2-14.9C506.4-14 487.2.4 482.3 10.1c-5.7 11.6 4 32.7 18.9 30.8zM478.8-1c8.9-1.6 30-16.7 29.1-25.1-.2-6.5-12.1-12.7-21.3-9.5-7 2.7-14.9 10.5-17.3 16.2-2.9 7.1 1.1 20 9.5 18.4z"/><glyph glyph-name="opencart" unicode="" horiz-adv-x="640" d="M423.3 7.3c0-25.3-20.3-45.6-45.6-45.6S331.9-18 331.9 7.3s20.6 45.8 45.8 45.8c25.4 0 45.6-20.5 45.6-45.8zM169.4 53.1c25.3 0 45.8-20.5 45.8-45.8s-20.5-45.6-45.8-45.6c-25.3 0-45.6 20.4-45.6 45.6s20.3 45.8 45.6 45.8zm291.7 270c302.2 0 169.5-67.2-17.2-233.899 59.2 102.8 262.5 193.899-70.8 188.899C53.3 273.4 34.401 370.6 0 422.3c81.9-86.4 158.9-99.2 461.1-99.2z"/><glyph glyph-name="expeditedssl" unicode="" horiz-adv-x="496" d="M248 404.6c117.4 0 212.6-95.2 212.6-212.6S365.4-20.6 248-20.6 35.4 74.6 35.4 192 130.6 404.6 248 404.6zm-97.4-132.9h-.2v-26.6c0-5 3.9-8.9 8.9-8.9H177c5 0 8.9 3.9 8.9 8.9v26.6c0 82.1 124 82.1 124 0v-26.6c0-5 3.9-8.9 8.9-8.9h17.7c5 0 8.9 3.9 8.9 8.9v26.6c0 53.7-43.7 97.4-97.4 97.4s-97.4-43.7-97.4-97.4zM389.7 68v141.7c0 9.7-8 17.7-17.7 17.7H124c-9.7 0-17.7-8-17.7-17.7V68c0-9.7 8-17.7 17.7-17.7h248c9.7 0 17.7 8 17.7 17.7zm-248 137.3V72.401c0-2.5-1.9-4.4-4.4-4.4h-8.9c-2.5 0-4.4 1.9-4.4 4.4V205.3c0 2.5 1.9 4.4 4.4 4.4h8.9c2.5 0 4.4-1.9 4.4-4.4zm141.7-48.7c0-13-7.2-24.4-17.7-30.4V94.6c0-5-3.9-8.9-8.9-8.9h-17.7c-5 0-8.9 3.9-8.9 8.9v31.6c-10.5 6.1-17.7 17.4-17.7 30.4 0 19.7 15.8 35.4 35.4 35.4 19.6 0 35.5-15.8 35.5-35.4zM248 440c137 0 248-111 248-248S385-56 248-56 0 55 0 192s111 248 248 248zm0-478.3C375-38.3 478.3 65 478.3 192S375 422.3 248 422.3 17.7 319 17.7 192 121-38.3 248-38.3z"/><glyph glyph-name="cc-jcb" unicode="" horiz-adv-x="576" d="M431.5 203.7V236c41.2 0 38.5-.2 38.5-.2 7.3-1.3 13.3-7.3 13.3-16 0-8.8-6-14.5-13.3-15.8-1.2-.4-3.3-.3-38.5-.3zm42.8-20.2c7.5-1.5 13.5-8.3 13.5-17 0-9-6-15.5-13.5-17-2.8-.7-3.2-.5-42.8-.5v35c39.5 0 40 .2 42.8-.5zM576 368V16c0-26.5-21.5-48-48-48H48C21.5-32 0-10.5 0 16v352c0 26.5 21.5 48 48 48h480c26.5 0 48-21.5 48-48zM182 255.7h-57c0-67.1 10.7-109.7-35.8-109.7-19.5 0-38.8 5.7-57.2 14.8v-28c30-8.3 68-8.3 68-8.3 97.9 0 82 47.7 82 131.2zm178.5-4.5c-63.4 16-165 14.9-165-59.3 0-77.1 108.2-73.6 165-59.2V161C312.9 136.3 253 139 253 192s59.8 55.6 107.5 31.2v28zM544 161.5c0 18.5-16.5 30.5-38 32v.8c19.5 2.7 30.3 15.5 30.3 30.2 0 19-15.7 30-37 31 0 0 6.3.3-120.3.3V128.3h122.7c24.3-.1 42.3 12.9 42.3 33.2z"/><glyph glyph-name="cc-diners-club" unicode="" horiz-adv-x="576" d="M239.7 368.1c97.2 0 175.8-78.6 175.8-175.8 0-96.9-78.6-175.8-175.8-175.8-96.9 0-175.8 78.9-175.8 175.8 0 97.2 78.9 175.8 175.8 175.8zM199.8 88.5v207.9c-41.7-16.2-71.4-56.7-71.4-104.101 0-47.4 29.7-87.9 71.4-103.8zm79.8-.3c41.7 16.2 71.4 56.7 71.4 104.1 0 47.4-29.7 87.9-71.4 104.101v-208.2zM528 416c26.5 0 48-21.5 48-48V16c0-26.5-21.5-48-48-48H48C21.5-32 0-10.5 0 16v352c0 26.5 21.5 48 48 48h480zM329.7 0c105 0 200.7 85.5 200.7 190.2 0 114.6-95.7 193.8-200.7 193.8h-90.3c-106.2 0-193.8-79.2-193.8-193.8C45.6 85.5 133.2 0 239.4 0h90.3z"/><glyph glyph-name="creative-commons" unicode="" horiz-adv-x="496" d="M245.83 233.13l-33.22-17.28c-9.43 19.58-25.24 19.93-27.46 19.93-22.13 0-33.22-14.61-33.22-43.84 0-23.57 9.21-43.84 33.22-43.84 14.47 0 24.65 7.09 30.57 21.26l30.55-15.5c-6.17-11.51-25.69-38.98-65.1-38.98-22.6 0-73.96 10.32-73.96 77.05 0 58.69 43 77.06 72.63 77.06 30.72.01 52.7-11.95 65.99-35.86zm143.05 0l-32.78-17.28c-9.5 19.77-25.72 19.93-27.9 19.93-22.14 0-33.22-14.61-33.22-43.84 0-23.55 9.23-43.84 33.22-43.84 14.45 0 24.65 7.09 30.54 21.26l31-15.5c-2.1-3.75-21.39-38.98-65.09-38.98-22.69 0-73.96 9.87-73.96 77.05 0 58.67 42.97 77.06 72.63 77.06 30.71.01 52.58-11.95 65.56-35.86zM247.56 439.95c141.82 0 248.44-110.13 248.44-248 0-147.13-118.51-248-248.44-248C113.6-56.05 0 53.46 0 191.95c0 132.939 104.74 248 247.56 248zm.87-450.81c103.16 0 202.83 81.13 202.84 202.82 0 113.8-90.29 203.26-202.819 203.26-118.29 0-203.72-97.85-203.72-203.27 0-109.771 91.16-202.811 203.699-202.811z"/><glyph glyph-name="gg" unicode="" horiz-adv-x="512" d="M179.2 217.6l102.399-102.399L179.2 12.801 0 192.001l179.2 179.2 44.8-44.8-25.6-25.6-19.2 19.2-128-128 128-128 51.5 51.5-77.1 76.5zm153.6 153.6L512 192 332.8 12.8 288 57.6l25.6 25.6L332.8 64l128 128-128 128-51.5-51.5 77.1-76.5-25.6-25.6-102.399 102.4z"/><glyph glyph-name="gg-circle" unicode="" horiz-adv-x="512" d="M257 440c137 0 248-111 248-248S394-56 257-56 9 55 9 192s111 248 248 248zM207.5 65.2l75 75.2-77.2 77.2-24.4-24.4 53.1-52.9-26.6-26.6-77.2 77.2 77.2 77.2 11.1-11.1 24.2 24.2-35.2 35.4L81.8 190.9zm99 2.2L432.2 193 306.5 318.7l-75-75 77.2-77.2 24.4 24.4-53.1 52.9 26.5 26.5 77.2-77.2-77.2-77.2-11.1 11.1-24.1-24.4z"/><glyph glyph-name="tripadvisor" unicode="" horiz-adv-x="576" d="M166.4 167.479c0-13.235-10.73-23.966-23.967-23.966-13.235 0-23.966 10.73-23.966 23.966s10.73 23.967 23.966 23.967c13.237 0 23.967-10.73 23.967-23.967zm264.962 23.956c13.23 0 23.955-10.725 23.956-23.956 0-13.23-10.727-23.955-23.956-23.955-13.231 0-23.956 10.725-23.956 23.955 0 13.231 10.725 23.956 23.956 23.956zm89.388-139.49c-62.667-49.104-153.276-38.11-202.379 24.559l-30.98-46.325-30.682 45.94C208.432 15.727 121.087 4.226 58.824 50.063-5.235 97.22-18.935 187.379 28.222 251.436 23.165 268.558 10.52 294.16 0 308.584l90.286.05c48.004 29.87 132.85 54.112 189.389 54.112 2.119 0 5.557-.037 7.675-.082 1.724.03 4.523.056 6.247.056 55.551 0 138.85-23.926 185.936-53.405l96.217-.074c-10.619-14.537-23.32-40.364-28.351-57.65 46.793-62.746 34.964-151.37-26.649-199.645zM259.366 166.24c-.007 63.557-51.535 115.075-115.092 115.067C80.716 281.3 29.2 229.773 29.206 166.215c.007-63.557 51.535-115.075 115.092-115.067 63.513.074 114.984 51.538 115.068 115.052v.04zm28.591 10.455c5.433 73.44 65.51 130.884 139.12 133.021-35.558 15.374-95.856 27.85-134.594 27.85-1.417 0-3.717-.016-5.134-.037-.953.008-2.5.016-3.455.016-39.232 0-100.479-12.217-136.709-27.27 74.345-1.581 135.3-59.424 140.771-133.58zm251.706 28.767c-21.992 59.634-88.162 90.148-147.795 68.157-59.634-21.992-90.148-88.162-68.157-147.795v-.032c22.038-59.607 88.198-90.09 147.827-68.113 59.615 22.004 90.113 88.162 68.125 147.783zm-326.039-37.975v-.115c-.057-39.328-31.986-71.163-71.314-71.107-39.328.058-71.163 31.987-71.106 71.315s31.986 71.163 71.314 71.105c39.26-.115 71.042-31.94 71.106-71.198zm-24.512 0v.084c-.052 25.783-20.994 46.644-46.778 46.594S95.689 193.17 95.74 167.386c.05-25.784 20.994-46.644 46.776-46.593 25.727.113 46.537 20.967 46.596 46.693zm313.423 0c-.02-39.328-31.918-71.242-71.247-71.222-39.33.022-71.194 31.918-71.173 71.247.02 39.328 31.918 71.195 71.247 71.173 39.29-.065 71.121-31.908 71.173-71.198zm-24.504.008c-.009 25.784-20.918 46.679-46.702 46.67s-46.679-20.918-46.67-46.702 20.918-46.678 46.702-46.67c25.765.046 46.636 20.928 46.67 46.693v.01z"/><glyph glyph-name="odnoklassniki" unicode="" horiz-adv-x="320" d="M275.1 114c-27.4-17.4-65.1-24.3-90-26.9L206 66.5l76.3-76.3c27.9-28.6-17.5-73.3-45.7-45.7-19.1 19.4-47.1 47.4-76.3 76.6L84-55.4C55.8-82.9 10.4-37.8 38.6-9.7 58 9.7 85.7 37.7 114.9 66.6l20.6 20.6c-24.6 2.6-62.9 9.1-90.6 26.9-32.6 21-46.9 33.3-34.3 59 7.4 14.6 27.7 26.9 54.6 5.7 0 0 36.3-28.9 94.9-28.9 58.6 0 94.9 28.9 94.9 28.9 26.9 21.1 47.1 8.9 54.6-5.7 12.4-25.7-1.9-38-34.5-59.1zM30.3 318.3C30.3 390 88.6 448 160 448s129.7-58 129.7-129.7c0-71.4-58.3-129.399-129.7-129.399s-129.7 58-129.7 129.399zm66 0c0-35.1 28.6-63.7 63.7-63.7s63.7 28.6 63.7 63.7c0 35.4-28.6 64-63.7 64s-63.7-28.6-63.7-64z"/><glyph glyph-name="odnoklassniki-square" unicode="" d="M184.2 270.9c0 22.1 17.9 40 39.8 40s39.8-17.9 39.8-40c0-22-17.9-39.8-39.8-39.8s-39.8 17.9-39.8 39.8zM448 368V16c0-26.5-21.5-48-48-48H48C21.5-32 0-10.5 0 16v352c0 26.5 21.5 48 48 48h352c26.5 0 48-21.5 48-48zm-305.1-97.1c0-44.6 36.4-80.9 81.1-80.9s81.1 36.2 81.1 80.9c0 44.8-36.4 81.1-81.1 81.1s-81.1-36.2-81.1-81.1zm174.5-90.7c-4.6 9.1-17.3 16.8-34.1 3.6 0 0-22.7-18-59.3-18s-59.3 18-59.3 18c-16.8 13.2-29.5 5.5-34.1-3.6-7.9-16.1 1.1-23.7 21.4-37 17.3-11.1 41.2-15.2 56.6-16.8l-12.9-12.9c-18.2-18-35.5-35.5-47.7-47.7-17.6-17.6 10.7-45.8 28.4-28.6l47.7 47.9c18.2-18.2 35.7-35.7 47.7-47.9 17.6-17.2 46 10.7 28.6 28.6l-47.7 47.7-13 12.9c15.5 1.6 39.1 5.9 56.2 16.8 20.4 13.3 29.3 21 21.5 37z"/><glyph glyph-name="get-pocket" unicode="" d="M407.6 384c22.7 0 40.4-18.2 40.4-40.6V208.2C448 83.5 348.2-16 224.2-16 99.7-16 0 83.5 0 208.2v135.2C0 365.5 18.5 384 40.6 384h367zm-162-268.5C357.5 223 360.401 220.9 360.401 238.7c0 16.9-13.8 30.7-30.7 30.7s-14.9-2.4-105.5-89.3c-89.1 85.5-88.2 89.3-105.2 89.3-16.9 0-30.7-13.8-30.7-30.7 0-18.1 1.2-14.3 114.9-123.2 11-11.1 30-11.8 42.399 0z"/><glyph glyph-name="wikipedia-w" unicode="" horiz-adv-x="640" d="M640 396.8l-.3-12.2c-28.1-.8-45-15.8-55.8-40.3-25-57.8-103.3-240-155.3-358.6H415l-81.9 193.1c-32.5-63.6-68.3-130-99.2-193.1-.3-.3-15 0-15 .3C172 95.7 122.8 204.6 75.8 314.6c-11.4 26.7-49.4 70-75.6 69.7 0 3.1-.3 10-.3 14.2h161.899v-13.9c-19.2-1.1-52.8-13.3-43.3-34.2 21.9-49.7 103.6-240.3 125.6-288.6 15 29.7 57.8 109.2 75.3 142.8-13.9 28.3-58.6 133.9-72.8 160-9.7 17.8-36.1 19.4-55.8 19.7v13.9l142.5-.3v-13.1c-19.4-.6-38.1-7.8-29.4-26.1 18.9-40 30.6-68.1 48.1-104.7 5.6 10.8 34.7 69.4 48.1 100.8 8.9 20.6-3.9 28.6-38.6 29.4.3 3.6 0 10.3.3 13.6 44.4.3 111.101.3 123.101.6v-13.6c-22.5-.8-45.8-12.8-58.1-31.7l-59.2-122.8c6.4-16.1 63.3-142.8 69.2-156.7l122.4 282.601c-8.601 23.1-36.4 28.1-47.2 28.3v13.9l127.8-1.1z"/></font>
</defs>
</svg>
